磁力链接吧

 找回密码
 立即注册
搜索

[BT下载]流浪巴黎 Lost.in.Paris.2016.1080p.BluRay.REMUX.AVC.DTS-HD.MA.5.1-FGT 16G ...

[复制链接]
电影首发 发表于 2017-12-15 09:38:00 | 显示全部楼层 |阅读模式

译  名 流浪巴黎/迷失巴黎
片  名 Paris pieds nus
年  代 2016
产  地 法国/比利时
类  别 喜剧
语  言 法语/英语
上映日期 2016-09-02(特柳赖德电影节)/2017-03-08(法国)/2017-03-15(比利时)
片  长 83分钟
导  演 多米尼克·阿贝尔 Dominique Abel / 菲奥娜·戈登 Fiona Gordon
主  演 菲奥娜·戈登 Fiona Gordon
      多米尼克·阿贝尔 Dominique Abel
      埃玛妞·丽娃 Emmanuelle Riva
      皮埃尔·里夏尔 Pierre Richard
      埃米·博萨德·普梅拉 Emmy Boissard Paumelle
      席琳·洛朗蒂 Céline Laurentie
      夏洛特·达伯里 Charlotte Dubery
      大卫·帕勒泰诺 David Palatino
      弗雷德里克·梅特 Frédéric Meert
      纪尧姆·迪力范 Guillaume Delvingt
      菲利普·马茨 Philippe Martz
      奥利维尔·帕朗蒂 Olivier Parenty
      法布里斯·米利奇 Fabrice Milich
      吉恩·洛森 Jean Loison
      安娜贝尔·科科洛斯 Annabelle Cocollos
      布鲁诺·罗密 Bruno Romy


简  介


  菲欧娜是一个普通的小镇图书管理员,一天她意外收到远在巴黎且已经93岁高龄的玛莎阿姨的求助信后,立刻就从加拿大乘飞机赶赴巴黎。然而当她到了玛莎的家时,发现她早已不见了踪迹。机缘巧合下,她遇见了多姆,一个古怪又任性、友善却又恼人的流浪汉。多姆担心不擅长法语的菲欧娜独自一人在巴黎街头流浪,便一直相伴其左右。法式的幽默、平凡的爱情,欢笑中又流露着悲伤,《迷失巴黎》秉承了多米尼克·阿贝尔和菲欧娜·戈登作品一贯的独特风格。


Video
ID                                       : 1
Format                                   : AVC
Format/Info                              : Advanced Video Codec
Format profile                           : High L4.1
Format settings                          : CABAC / 4 Ref Frames
Format settings, CABAC                   : Yes
Format settings, ReFrames                : 4 frames
Format settings, GOP                     : M=3, N=12
Codec ID                                 : V_MPEG4/ISO/AVC
Duration                                 : 1 h 23 min
Bit rate mode                            : Variable
Bit rate                                 : 22.5 Mb/s
Maximum bit rate                         : 32.5 Mb/s
Width                                    : 1 920 pixels
Height                                   : 1 080 pixels
Display aspect ratio                     : 16:9
Frame rate mode                          : Constant
Frame rate                               : 23.976 (24000/1001) FPS
Standard                                 : NTSC
Color space                              : YUV
Chroma subsampling                       : 4:2:0
Bit depth                                : 8 bits
Scan type                                : Progressive
Bits/(Pixel*Frame)                       : 0.453
Stream size                              : 13.1 GiB (81%)
Title                                    : Lost.in.Paris.2016.1080p.BluRay.REMUX.AVC.DTS-HD.MA.5.1-FGT
Language                                 : English
Default                                  : No
Forced                                   : No
Color range                              : Limited
Color primaries                          : BT.709
Transfer characteristics                 : BT.709
Matrix coefficients                      : BT.709

Audio #1
ID                                       : 2
Format                                   : DTS
Format/Info                              : Digital Theater Systems
Format profile                           : MA / Core
Codec ID                                 : A_DTS
Duration                                 : 1 h 23 min
Bit rate mode                            : Variable / Constant
Bit rate                                 : 3 680 kb/s / 1 509 kb/s
Channel(s)                               : 6 channels
Channel positions                        : Front: L C R, Side: L R, LFE
Sampling rate                            : 48.0 kHz
Frame rate                               : 93.750 FPS (512 SPF)
Bit depth                                : 24 bits
Compression mode                         : Lossless / Lossy
Stream size                              : 2.14 GiB (13%)
Title                                    : Lost.in.Paris.2016.1080p.BluRay.REMUX.AVC.DTS-HD.MA.5.1-FGT
Language                                 : Multiple languages
Default                                  : Yes
Forced                                   : No







Lost.in.Paris.2016.1080p.BluRay.REMUX.AVC.DTS-HD.MA.5.1-FGT[bt天堂 www.btbt4.com].torrent (81.07 KB, 下载次数: 20)

回复

使用道具 举报

小黑屋|磁力链接吧 |网站地图

本网站所有资源来自网络,如无意中侵犯了您的权益,请发邮件至 [email protected],立即清除相关链接

GMT+8, 2019-8-19 04:15 , Processed in 0.097908 second(s), 23 queries .

Powered by Discuz! X3.2

© 2001-2013 Comsenz Inc.

快速回复 返回顶部 返回列表