磁力链接吧

 找回密码
 立即注册
搜索

[动画片] [BT下载]我的爸爸是森林之王 The.Son.Of.Bigfoot.2017.1080p.BluRay.x264-HDEX 4.37GB ...

[复制链接]
电影首发 发表于 2017-12-14 13:52:00 | 显示全部楼层 |阅读模式

译  名 我的爸爸是森林之王/大脚冒险王(台)/大脚的儿子
片  名 The Son Of Bigfoot
年  代 2017
产  地 比利时/法国
类  别 喜剧/动画/冒险
语  言 法语/英语
上映日期 2017-08-16(法国)/2017-10-14(中国大陆)
片  长 91分钟
导  演 本·斯塔森 Ben Stassen / 杰里米·德格鲁森 Jeremy Degruson
主  演 克里斯托弗·L·帕森 Christopher L. Parson
      乔·托马斯 Joe Thomas
      辛达·亚当斯 Cinda Adams
      鲍勃·巴伦 Bob Barlen
      卡尔·布伦克尔 Cal Brunker
      乔伊·卡门 Joey Camen


简  介


  亚当,一个十三岁的、不合群的男孩,为了发现父亲失踪背后的秘密,踏上了一段惊心动魄、令人难忘的征程。他很快发现他的父亲正是传说中的大脚怪,他多年来一直躲藏在森林里,以保护他自己和家人不被大型公司 HairCo. 纠缠。该公司渴望用他的特殊 DNA 进行科学实验。就当这对父子开始弥补失去的时光时,亚当很快发现自己也赋有超乎想象的超能力。但他们不知道的是,HairCo. 正沿着亚当留下的踪迹紧追过来......


Video
ID                                       : 2
Format                                   : AVC
Format/Info                              : Advanced Video Codec
Format profile                           : [email protected]
Format settings                          : CABAC / 4 Ref Frames
Format settings, CABAC                   : Yes
Format settings, ReFrames                : 4 frames
Codec ID                                 : V_MPEG4/ISO/AVC
Duration                                 : 1 h 32 min
Bit rate                                 : 5 275 kb/s
Width                                    : 1 920 pixels
Height                                   : 1 080 pixels
Display aspect ratio                     : 16:9
Frame rate mode                          : Constant
Frame rate                               : 23.976 (24000/1001) FPS
Color space                              : YUV
Chroma subsampling                       : 4:2:0
Bit depth                                : 8 bits
Scan type                                : Progressive
Bits/(Pixel*Frame)                       : 0.106
Stream size                              : 3.40 GiB (78%)
Title                                    : English
Writing library                          : x264 core 152 r2851 ba24899
Encoding settings                        : cabac=1 / ref=4 / deblock=1:0:0 / analyse=0x3:0x113 / me=umh / subme=8 / psy=1 / psy_rd=1.00:0.00 / mixed_ref=1 / me_range=16 / chroma_me=1 / trellis=1 / 8x8dct=1 / cqm=0 / deadzone=21,11 / fast_pskip=1 / chroma_qp_offset=-2 / threads=12 / lookahead_threads=2 / sliced_threads=0 / nr=0 / decimate=1 / interlaced=0 / bluray_compat=0 / constrained_intra=0 / bframes=3 / b_pyramid=2 / b_adapt=1 / b_bias=0 / direct=3 / weightb=1 / open_gop=0 / weightp=2 / keyint=240 / keyint_min=24 / scenecut=40 / intra_refresh=0 / rc_lookahead=50 / rc=2pass / mbtree=1 / bitrate=5275 / ratetol=1.0 / qcomp=0.60 / qpmin=0 / qpmax=69 / qpstep=4 / cplxblur=20.0 / qblur=0.5 / ip_ratio=1.40 / aq=1:1.00
Language                                 : English
Default                                  : Yes
Forced                                   : No

Audio
ID                                       : 1
Format                                   : DTS
Format/Info                              : Digital Theater Systems
Codec ID                                 : A_DTS
Duration                                 : 1 h 32 min
Bit rate mode                            : Constant
Bit rate                                 : 1 509 kb/s
Channel(s)                               : 6 channels
Channel positions                        : Front: L C R, Side: L R, LFE
Sampling rate                            : 48.0 kHz
Frame rate                               : 93.750 FPS (512 SPF)
Bit depth                                : 24 bits
Compression mode                         : Lossy
Stream size                              : 995 MiB (22%)
Title                                    : English
Language                                 : English
Default                                  : Yes
Forced                                   : No

Menu
00:00:00.000                             : en:00:00:00.000
00:07:24.194                             : en:00:07:24.194
00:14:53.768                             : en:00:14:53.768
00:22:11.789                             : en:00:22:11.789
00:30:27.492                             : en:00:30:27.492
00:39:25.613                             : en:00:39:25.613
00:48:17.269                             : en:00:48:17.269
00:55:43.674                             : en:00:55:43.674
01:02:39.130                             : en:01:02:39.130
01:11:40.213                             : en:01:11:40.213
01:20:37.082                             : en:01:20:37.082
01:27:56.521                             : en:01:27:56.521







The.Son.Of.Bigfoot.2017.1080p.BluRay.x264-HDEX[bt天堂 www.btbt4.com].torrent (87.94 KB, 下载次数: 175)

回复

使用道具 举报

小黑屋|磁力链接吧 |网站地图

本网站所有资源来自网络,如无意中侵犯了您的权益,请发邮件至 [email protected],立即清除相关链接

GMT+8, 2019-11-21 10:45 , Processed in 0.074441 second(s), 23 queries .

Powered by Discuz! X3.2

© 2001-2013 Comsenz Inc.

快速回复 返回顶部 返回列表