磁力链接吧

 找回密码
 立即注册
搜索

[剧情片] [我爱你,老爸][BT下载][DVDScr-AVI/1.5G][英语无字]

[复制链接]
电影首发 发表于 2017-12-11 12:42:00 | 显示全部楼层 |阅读模式

译  名 我爱你,老爸/我爱你,爸爸
片  名 I Love You, Daddy
年  代 2017
产  地 美国
类  别 剧情/喜剧
语  言 英语
上映日期 2017-09-09(多伦多电影节)/2017-11-17(美国)
IMDb评分  6.1/10 from 366 users
片  长 123分钟
导  演 路易·C·K Louis C.K.
主  演 路易·C·K Louis C.K.
      科洛·莫瑞兹 Chloë Grace Moretz
      约翰·马尔科维奇 John Malkovich
      海伦·亨特 Helen Hunt
      萝丝·拜恩 Rose Byrne
      帕梅拉·阿德龙 Pamela Adlon
      埃迪·法可 Edie Falco
      查理·戴 Charlie Day


简  介


  Louis C.K.又一部几乎没有任何宣传的突如其来的新作,自传式35mm胶片黑白电影,将在多伦多电影节上映。据说电影基本上是本色演出的父女情大戏,路易CK扮演一个纽约的电视剧制作人,Chloe Grace Moretz演他的女儿,名字叫China。
译  名 我爱你,老爸/我爱你,爸爸
片  名 I Love You, Daddy
年  代 2017
产  地 美国
类  别 剧情/喜剧
语  言 英语
上映日期 2017-09-09(多伦多电影节)/2017-11-17(美国)
IMDb评分  6.1/10 from 366 users
  
豆瓣评分 8.2/10 from 10 users
 
片  长 123分钟
导  演 路易·C·K Louis C.K.
主  演 路易·C·K Louis C.K.
      科洛·莫瑞兹 Chloë Grace Moretz
      约翰·马尔科维奇 John Malkovich
      海伦·亨特 Helen Hunt
      萝丝·拜恩 Rose Byrne
      帕梅拉·阿德龙 Pamela Adlon
      埃迪·法可 Edie Falco
      查理·戴 Charlie Day


简  介


  Louis C.K.又一部几乎没有任何宣传的突如其来的新作,自传式35mm胶片黑白电影,将在多伦多电影节上映。据说电影基本上是本色演出的父女情大戏,路易CK扮演一个纽约的电视剧制作人,Chloe Grace Moretz演他的女儿,名字叫China。


Video
ID                                       : 0
Format                                   : MPEG-4 Visual
Format profile                           : Advanced [email protected]
Format settings                          : BVOP2 / QPel
Format settings, BVOP                    : 2
Format settings, QPel                    : Yes
Format settings, GMC                     : No warppoints
Format settings, Matrix                  : Default (H.263)
Muxing mode                              : Packed bitstream
Codec ID                                 : XVID
Codec ID/Hint                            : XviD
Duration                                 : 1 h 54 min
Bit rate                                 : 1 606 kb/s
Width                                    : 720 pixels
Height                                   : 400 pixels
Display aspect ratio                     : 16:9
Frame rate                               : 29.970 (30000/1001) FPS
Color space                              : YUV
Chroma subsampling                       : 4:2:0
Bit depth                                : 8 bits
Scan type                                : Progressive
Compression mode                         : Lossy
Bits/(Pixel*Frame)                       : 0.186
Stream size                              : 1.29 GiB (86%)
Writing library                          : XviD 1.2.1 (UTC 2008-12-04)

Audio
ID                                       : 1
Format                                   : AC-3
Format/Info                              : Audio Coding 3
Format settings, Endianness              : Big
Codec ID                                 : 2000
Duration                                 : 1 h 54 min
Bit rate mode                            : Constant
Bit rate                                 : 256 kb/s
Channel(s)                               : 2 channels
Channel positions                        : Front: L R
Sampling rate                            : 48.0 kHz
Frame rate                               : 31.250 FPS (1536 SPF)
Bit depth                                : 16 bits
Compression mode                         : Lossy
Stream size                              : 210 MiB (14%)
Alignment                                : Split accross interleaves
Interleave, duration                     : 33  ms (1.00 video frame)
Interleave, preload duration             : 500  ms
Service kind                             : Complete Main






I.Love.You.Daddy.2017.DVDScr.XVID.AC3.HQ.Hive-CM8[btbtt.me].torrent (122.37 KB, 下载次数: 63)

回复

使用道具 举报

小黑屋|磁力链接吧 |网站地图

本网站所有资源来自网络,如无意中侵犯了您的权益,请发邮件至 [email protected],立即清除相关链接

GMT+8, 2020-10-28 02:14 , Processed in 0.184832 second(s), 23 queries .

Powered by Discuz! X3.2

© 2001-2013 Comsenz Inc.

快速回复 返回顶部 返回列表