百度云资源论坛

 找回密码
 立即注册
搜索

[上下格式] [BT下载]饥饿游戏3:嘲笑鸟(下)[3D上下]2015.1080p.3D.BluRay.Half-OU.x264.TrueHD.7.1 ...

[复制链接]
电影首发 发表于 2016-3-20 10:31:00 | 显示全部楼层 |阅读模式

译  名 饥饿游戏3:嘲笑鸟(下)/饥饿游戏:自由幻梦最终章(台)/饥饿游戏终极篇:自由幻梦2(港)/饥饿游戏3:自由幻梦(下)/饥饿游戏:自由梦幻(下)/饥饿游戏 第三部(下)/嘲笑鸟(下)
片  名 The Hunger Games: Mockingjay - Part 2
年  代 2015
国  家 美国
类  别 动作/科幻/冒险
语  言 英语
上映日期 2015-11-20(美国/中国大陆)
片  长 136分钟
导  演 弗朗西斯·劳伦斯 Francis Lawrence
主  演 詹妮弗·劳伦斯 Jennifer Lawrence
      乔什·哈切森 Josh Hutcherson
      利亚姆·海姆斯沃斯 Liam Hemsworth
      伍迪·哈里森 Woody Harrelson
      伊丽莎白·班克斯 Elizabeth Banks
      朱丽安·摩尔 Julianne Moore
      菲利普·塞默·霍夫曼 Philip Seymour Hoffman
      杰弗里·怀特 Jeffrey Wright
      斯坦利·图齐 Stanley Tucci
      唐纳德·萨瑟兰 Donald Sutherland
      托比·琼斯 Toby Jones
      山姆·克拉弗林 Sam Claflin
      吉娜·马隆 Jena Malone
      娜塔莉·多默尔 Natalie Dormer
      伊万·罗斯 Evan Ross


简  介


  施惠国爆发了全面战争,凯特尼斯(詹妮弗·劳伦斯 Jennifer Lawrence 饰)将在最后关头对峙斯诺总统(唐纳德·萨瑟兰 Donald Sutherland 饰)。在盖尔(利亚姆·海姆斯沃斯 Liam Hemsworth 饰)、芬尼克(山姆·克拉弗林 Sam Claflin 饰)和皮塔(乔什·哈切森 Josh Hutcherson 饰)等好友的陪伴下,凯特尼斯和十三区的小队一起为了解放施惠国的人民而冒险抗争,并且策划暗杀越来越执迷于杀死她的斯诺总统。凯特尼斯将面对致命陷阱、劲敌和道义上的选择,而这些挑战都不曾出现在饥饿游戏的竞技场中。


获奖情况


  第18届美国服装设计工会奖  (2016)
  奇幻题材电影最佳服装设计(提名)


  第21届美国评论家选择电影奖  (2016)
  动作片最佳女主角(提名) 詹妮弗·劳伦斯


  第6届豆瓣电影鑫像奖  (2016)
  豆渣单元 最渣影片(外语)(提名)
  豆渣单元 最渣导演(外语)(提名) 弗朗西斯·劳伦斯
  豆渣单元 最渣男演员(外语)(提名) 乔什·哈切森
  豆渣单元 最渣女演员(外语)(提名) 詹妮弗·劳伦斯


Video
ID                                       : 1
Format                                   : AVC
Format/Info                              : Advanced Video Codec
Format profile                           : [email protected]
Format settings, CABAC                   : Yes
Format settings, ReFrames                : 2 frames
Codec ID                                 : V_MPEG4/ISO/AVC
Duration                                 : 2h 16mn
Nominal bit rate                         : 16.0 Mbps
Width                                    : 1 920 pixels
Height                                   : 1 080 pixels
Display aspect ratio                     : 16:9
Frame rate mode                          : Constant
Frame rate                               : 23.976 (24000/1001) fps
Color space                              : YUV
Chroma subsampling                       : 4:2:0
Bit depth                                : 8 bits
Scan type                                : Progressive
Bits/(Pixel*Frame)                       : 0.322
Title                                    : The.Hunger.Games.Mockingjay.Part.2.2015.1080p.3D.BluRay.Half-OU.x264.TrueHD.7.1.Atmos-FGT
Writing library                          : x264 core 142
Encoding settings                        : cabac=1 / ref=1 / deblock=1:-1:-1 / analyse=0x3:0 / me=hex / subme=5 / psy=0 / mixed_ref=0 / me_range=16 / chroma_me=1 / trellis=0 / 8x8dct=1 / cqm=0 / deadzone=21,11 / fast_pskip=0 / chroma_qp_offset=0 / threads=8 / lookahead_threads=2 / sliced_threads=0 / nr=0 / decimate=1 / interlaced=0 / bluray_compat=0 / constrained_intra=0 / bframes=2 / b_pyramid=0 / b_adapt=1 / b_bias=0 / direct=1 / weightb=0 / open_gop=0 / weightp=0 / keyint=24 / keyint_min=13 / scenecut=40 / intra_refresh=0 / rc=abr / mbtree=0 / bitrate=16000 / ratetol=1.0 / qcomp=0.60 / qpmin=0 / qpmax=69 / qpstep=4 / ip_ratio=1.40 / pb_ratio=1.30 / aq=1:1.00
Language                                 : English
Default                                  : Yes
Forced                                   : No
Color range                              : Limited
Color primaries                          : BT.709
Transfer characteristics                 : BT.709
Matrix coefficients                      : BT.709


Audio #1
ID                                       : 2
Format                                   : Atmos / TrueHD
Codec ID                                 : A_TRUEHD
Bit rate mode                            : Variable
Maximum bit rate                         : 8 142 Kbps
Channel(s)                               : Object Based / 8 channels
Channel positions                        : Object Based / Front: L C R, Side: L R, Back: L R, LFE
Sampling rate                            :  / 48.0 KHz
Frame rate                               : 1 200.000 fps (40 spf)
Compression mode                         : Lossless
Title                                    : The.Hunger.Games.Mockingjay.Part.2.2015.1080p.3D.BluRay.Half-OU.x264.TrueHD.7.1.Atmos-FGT
Language                                 : English
Default                                  : Yes
Forced                                   : No


Audio #2
ID                                       : 3
Format                                   : AC-3
Format/Info                              : Audio Coding 3
Format profile                           : Dolby Digital
Mode extension                           : CM (complete main)
Format settings, Endianness              : Big
Codec ID                                 : A_AC3
Duration                                 : 2h 16mn
Bit rate mode                            : Constant
Bit rate                                 : 224 Kbps
Channel(s)                               : 2 channels
Channel positions                        : Front: L R
Sampling rate                            : 48.0 KHz
Frame rate                               : 31.250 fps (1536 spf)
Compression mode                         : Lossy
Stream size                              : 219 MiB (1%)
Title                                    : The.Hunger.Games.Mockingjay.Part.2.2015.1080p.3D.BluRay.Half-OU.x264.TrueHD.7.1.Atmos-FGT
Language                                 : English
Default                                  : No
Forced                                   : No


Audio #3
ID                                       : 4
Format                                   : AC-3
Format/Info                              : Audio Coding 3
Mode extension                           : CM (complete main)
Format settings, Endianness              : Big
Codec ID                                 : A_AC3
Duration                                 : 2h 16mn
Bit rate mode                            : Constant
Bit rate                                 : 640 Kbps
Channel(s)                               : 6 channels
Channel positions                        : Front: L C R, Side: L R, LFE
Sampling rate                            : 48.0 KHz
Frame rate                               : 31.250 fps (1536 spf)
Compression mode                         : Lossy
Stream size                              : 627 MiB (3%)
Title                                    : The.Hunger.Games.Mockingjay.Part.2.2015.1080p.3D.BluRay.Half-OU.x264.TrueHD.7.1.Atmos-FGT
Language                                 : English
Default                                  : No
Forced                                   : No


Text
ID                                       : 5
Format                                   : PGS
Muxing mode                              : zlib
Codec ID                                 : S_HDMV/PGS
Codec ID/Info                            : Picture based subtitle format used on BDs/HD-DVDs
Title                                    : English-PGS
Language                                 : English
Default                                  : No
Forced                                   : No


Menu
00:00:00.000                             : en01)00:00:00:000
00:07:39.041                             : en02)00:07:39:041
00:16:49.216                             : en03)00:16:49:216
00:24:46.985                             : en04)00:24:46:985
00:31:59.959                             : en05)00:31:59:959
00:37:11.687                             : en06)00:37:11:687
00:46:42.716                             : en07)00:46:42:716
00:55:00.880                             : en000:55:00:880
01:02:46.429                             : en09)01:02:46:429
01:09:27.496                             : en10)01:09:27:496
01:18:42.968                             : en11)01:18:42:968
01:29:51.135                             : en12)01:29:51:135
01:37:08.238                             : en13)01:37:08:238
01:49:01.785                             : en14)01:49:01:785
01:56:55.758                             : en15)01:56:55:758
02:03:33.239                             : en16)02:03:33:239


                                                                                                                       
                                                                                                                                                                                                                                                        The.Hunger.Games.Mockingjay.Part.2.2015.1080p.3D.BluRay.Half-OU.x264.TrueHD.7.1.Atmos-FGT.torrent (100.23 KB, 下载次数: 46)

回复

使用道具 举报

小黑屋|百度云资源论坛 |网站地图

本网站所有资源来自网络,如无意中侵犯了您的权益,请发邮件至 [email protected],立即清除相关链接

GMT+8, 2019-5-27 01:36 , Processed in 0.058990 second(s), 23 queries .

Powered by Discuz! X3.2

© 2001-2013 Comsenz Inc.

快速回复 返回顶部 返回列表