磁力链接吧

 找回密码
 立即注册
搜索

[喜剧片] [BT下载]查尔斯·斯旺三世心灵一 2012.1080p.BluRay.x264.DTS-FGT 5.46GB

[复制链接]
电影首发 发表于 2016-3-20 10:24:00 | 显示全部楼层 |阅读模式

译  名 查尔斯·斯旺三世心灵一瞥/查尔斯天鹅三世的心灵(台)/查尔斯的心灵/查尔斯的大脑
片  名 A Glimpse Inside the Mind of Charles Swan III
年  代 2012
国  家 美国
类  别 喜剧
语  言 英语
上映日期 2013-02-08(美国)
片  长 86分钟
导  演 罗曼·科波拉 Roman Coppola
主  演 玛丽·伊丽莎白·文斯蒂德 Mary Elizabeth Winstead
      查理·辛 Charlie Sheen
      比尔·默瑞 Bill Murray
      奥布瑞·普拉扎 Aubrey Plaza


简  介


  影片的故事开始于1970年代,故事的主人翁是一个叫做查尔斯·斯万三世的男人。他是一个成功的美术设计师,也是一个很有女人缘的男人。
  可是,最近,他却被自己的女朋友伊万娜给甩了,并且自己的生活也陷入了困顿和不快乐之中。他不知道自己是不是爱他或者是恨她,抑或只是想再见她一面。渐渐地,查尔斯在做恶梦、发热,并且总是会回忆起自己之前的过往和之前的往事。好在他还有自己的挚友科尔比以及经理人绍尔的陪同--只是,他这次能走出爱情的阴影并且重新把生活拉回正轨么?


Video
ID                                       : 1
Format                                   : AVC
Format/Info                              : Advanced Video Codec
Format profile                           : [email protected]
Format settings, CABAC                   : Yes
Format settings, ReFrames                : 4 frames
Codec ID                                 : V_MPEG4/ISO/AVC
Duration                                 : 1h 25mn
Bit rate                                 : 7 435 Kbps
Width                                    : 1 920 pixels
Height                                   : 1 080 pixels
Display aspect ratio                     : 16:9
Frame rate mode                          : Constant
Frame rate                               : 23.976 (24000/1001) fps
Color space                              : YUV
Chroma subsampling                       : 4:2:0
Bit depth                                : 8 bits
Scan type                                : Progressive
Bits/(Pixel*Frame)                       : 0.150
Stream size                              : 4.45 GiB (81%)
Writing library                          : x264 core 132 r2310 76a5c3a
Encoding settings                        : cabac=1 / ref=4 / deblock=1:-1:-1 / analyse=0x3:0x133 / me=umh / subme=7 / psy=1 / psy_rd=1.00:0.15 / mixed_ref=1 / me_range=16 / chroma_me=1 / trellis=1 / 8x8dct=1 / cqm=0 / deadzone=21,11 / fast_pskip=0 / chroma_qp_offset=-3 / threads=12 / lookahead_threads=2 / sliced_threads=0 / nr=0 / decimate=1 / interlaced=0 / bluray_compat=0 / constrained_intra=0 / bframes=3 / b_pyramid=2 / b_adapt=1 / b_bias=0 / direct=1 / weightb=1 / open_gop=0 / weightp=2 / keyint=250 / keyint_min=23 / scenecut=40 / intra_refresh=0 / rc_lookahead=40 / rc=crf / mbtree=1 / crf=20.0 / qcomp=0.60 / qpmin=0 / qpmax=69 / qpstep=4 / ip_ratio=1.40 / aq=1:1.00
Language                                 : English
Default                                  : Yes
Forced                                   : No

Audio
ID                                       : 2
Format                                   : DTS
Format/Info                              : Digital Theater Systems
Mode                                     : 16
Format settings, Endianness              : Big
Codec ID                                 : A_DTS
Duration                                 : 1h 25mn
Bit rate mode                            : Constant
Bit rate                                 : 1 509 Kbps
Channel(s)                               : 6 channels
Channel positions                        : Front: L C R, Side: L R, LFE
Sampling rate                            : 48.0 KHz
Frame rate                               : 93.750 fps (512 spf)
Bit depth                                : 24 bits
Compression mode                         : Lossy
Stream size                              : 924 MiB (17%)
Language                                 : English
Default                                  : Yes
Forced                                   : No

Text
ID                                       : 3
Format                                   : UTF-8
Codec ID                                 : S_TEXT/UTF8
Codec ID/Info                            : UTF-8 Plain Text
Title                                    : FORCED
Language                                 : English
Default                                  : Yes
Forced                                   : Yes

Menu
00:00:00.000                             : en:00:00:00.000
00:08:43.189                             : en:00:08:43.189
00:14:59.023                             : en:00:14:59.023
00:20:08.040                             : en:00:20:08.040
00:25:32.239                             : en:00:25:32.239
00:32:07.134                             : en:00:32:07.134
00:38:02.906                             : en:00:38:02.906
00:46:04.136                             : en:00:46:04.136
00:54:06.034                             : en:00:54:06.034
01:01:46.703                             : en:01:01:46.703
01:10:49.871                             : en:01:10:49.871
01:17:47.580                             : en:01:17:47.580





                                                                                                                                                                                                       

                                                                                                                       
                                                                                                                                                                                                                                                        A.Glimpse.Inside.the.Mind.of.Charles.Swan.III.2012.1080p.BluRay.x264.DTS-FGT.torrent (55.25 KB, 下载次数: 33)

回复

使用道具 举报

小黑屋|磁力链接吧 |网站地图

本网站所有资源来自网络,如无意中侵犯了您的权益,请发邮件至 [email protected],立即清除相关链接

GMT+8, 2019-8-25 23:57 , Processed in 0.096162 second(s), 23 queries .

Powered by Discuz! X3.2

© 2001-2013 Comsenz Inc.

快速回复 返回顶部 返回列表