百度云资源论坛

 找回密码
 立即注册
搜索

[动作片] [BT下载]猫狗大战/猫狗斗一番 Cats.And.Dogs.2001.1080p.BluRay.x264.DTS-FGT 6.4GB . ...

[复制链接]
电影首发 发表于 2016-3-20 10:17:00 | 显示全部楼层 |阅读模式

译  名 猫狗大战/猫狗斗一番
片  名 Cats & Dogs
年  代 2001
国  家 美国/澳大利亚
类  别 动作/冒险/喜剧/家庭
语  言 英语
上映日期 2001-07-04(美国)
片  长 87 分钟
导  演 劳伦斯·哥特曼 Lawrence Guterman
主  演 杰夫·高布伦 Jeff Goldblum
      伊丽莎白·帕金斯 Elizabeth Perkins
      Alexander Pollock
      米瑞安·玛格莱斯 Miriam Margolyes


简  介


  猫狗自古就水火不容,这部动画更是将它们卷入一场势不两立的战斗当中。在这里,猫是最邪恶不过的动物,它们貌似平静温顺,却在暗中紧锣密鼓筹划着统治地球的阴谋。狗则是人类最忠实的保护者,他们忠心耿耿,要把危害人类的猫类“赶尽杀绝”。猎犬小卢正是这么一只身负重任的狗。因为,它得知了猫们正在野心勃勃,要毁灭狗类进而威胁人类。
  这只毫无战斗经验的小狗,临危受命担任起狗类的统帅,狗军师们帮他出谋划策。众狗各施所长,就连人类惯用的卧底招数也成为了这场猫狗大战的超级战术!看来小卢要在复杂的“战况”中鼓足斗志才行。



Video
ID                                       : 1
Format                                   : AVC
Format/Info                              : Advanced Video Codec
Format profile                           : [email protected]
Format settings, CABAC                   : Yes
Format settings, ReFrames                : 4 frames
Codec ID                                 : V_MPEG4/ISO/AVC
Duration                                 : 1h 27mn
Bit rate                                 : 9 062 Kbps
Width                                    : 1 920 pixels
Height                                   : 1 080 pixels
Display aspect ratio                     : 16:9
Frame rate mode                          : Constant
Frame rate                               : 23.976 (24000/1001) fps
Color space                              : YUV
Chroma subsampling                       : 4:2:0
Bit depth                                : 8 bits
Scan type                                : Progressive
Bits/(Pixel*Frame)                       : 0.182
Stream size                              : 5.39 GiB (84%)
Writing library                          : x264 core 98 r1649 20cbe10
Encoding settings                        : cabac=1 / ref=4 / deblock=1:0:0 / analyse=0x3:0x133 / me=umh / subme=9 / psy=1 / psy_rd=1.00:0.00 / mixed_ref=1 / me_range=24 / chroma_me=1 / trellis=1 / 8x8dct=1 / cqm=0 / deadzone=21,11 / fast_pskip=1 / chroma_qp_offset=-2 / threads=12 / sliced_threads=0 / nr=0 / decimate=1 / interlaced=0 / constrained_intra=0 / bframes=5 / b_pyramid=2 / b_adapt=1 / b_bias=0 / direct=3 / weightb=1 / weightp=2 / keyint=250 / keyint_min=25 / scenecut=40 / intra_refresh=0 / rc_lookahead=40 / rc=2pass / mbtree=1 / bitrate=9062 / ratetol=1.0 / qcomp=0.50 / qpmin=10 / qpmax=51 / qpstep=4 / cplxblur=20.0 / qblur=0.5 / ip_ratio=1.10 / aq=1:1.00
Language                                 : English
Default                                  : No
Forced                                   : No

Audio
ID                                       : 2
Format                                   : DTS
Format/Info                              : Digital Theater Systems
Mode                                     : 16
Format settings, Endianness              : Big
Codec ID                                 : A_DTS
Duration                                 : 1h 27mn
Bit rate mode                            : Constant
Bit rate                                 : 1 509 Kbps
Channel(s)                               : 6 channels
Channel positions                        : Front: L C R, Side: L R, LFE
Sampling rate                            : 48.0 KHz
Frame rate                               : 93.750 fps (512 spf)
Bit depth                                : 24 bits
Compression mode                         : Lossy
Stream size                              : 942 MiB (14%)
Language                                 : English
Default                                  : No
Forced                                   : No






                                                                                                                                                                                                       

                                                                                                                       
                                                                                                                                                                                                                                                        Cats.And.Dogs.2001.1080p.BluRay.x264.DTS-FGT.torrent (64.96 KB, 下载次数: 160)

回复

使用道具 举报

小黑屋|百度云资源论坛 |网站地图

本网站所有资源来自网络,如无意中侵犯了您的权益,请发邮件至 [email protected],立即清除相关链接

GMT+8, 2019-5-26 05:05 , Processed in 0.056848 second(s), 23 queries .

Powered by Discuz! X3.2

© 2001-2013 Comsenz Inc.

快速回复 返回顶部 返回列表