百度云资源论坛

 找回密码
 立即注册
搜索

[喜剧片] [BT下载]猫狗大战2:珍珠猫复仇 Cats.And.Dogs.2.2010.1080p.BluRay.x264.DTS-FGT 7.4G ...

[复制链接]
电影首发 发表于 2016-3-20 10:17:00 | 显示全部楼层 |阅读模式

译  名 猫狗大战:珍珠猫复仇/猫狗大战:珍珠猫大反扑(台)/猫狗斗多番(港)/猫狗大战2:猫怪的复仇/猫狗大战2
片  名 Cats & Dogs: The Revenge of Kitty Galore
年  代 2010
国  家 美国/澳大利亚 Australia
类  别 喜剧/动作/家庭
语  言 英语
上映日期 2010-07-3
片  长 82分钟
导  演 Brad Peyton
主  演 克里斯·奥唐纳 Chris O'Donnell
      杰克·麦克布瑞尔 Jack McBrayer
      Paul Rodriguez
      马尔科姆·斯图尔特 Malcolm Stewart
      David Milchard


简  介


  本片为2001年在《猫狗大战》的续集。
  故事发生在距离上一次猫咪和狗狗的大战已经过去了数年之后。来之不易的和平再一次受到威胁。这次的敌人可不是上一部中的笨蛋,它可是原猫咪间谍组织“喵”(MEOWS)的顶级特工,名为Kitty Galore。它顺利地窃取到了狗狗组织的核心机密,并且为了报复狗狗组织和人类,它设计了一个恐怖而毒辣的计划意图控制全世界!在面对这样一个迫在眉睫且前所未有的致命威胁的紧要关头,猫与狗在万不得已的情况下,只能被迫选择结成同盟——这还是这两种生物历史上的第一次,在这个由一只猫所制造的浩劫当中,它们需要拯救的不仅仅是自己,还有他们深爱着的人类。为了阻挠邪恶计划的征途,它们必须得将身体里潜藏的一切生物本能发挥到极致才行……


获奖情况


  第31届金酸莓奖  (2011)
  最差3D电影(提名)


Video
ID                                       : 1
Format                                   : AVC
Format/Info                              : Advanced Video Codec
Format profile                           : [email protected]
Format settings, CABAC                   : Yes
Format settings, ReFrames                : 4 frames
Codec ID                                 : V_MPEG4/ISO/AVC
Duration                                 : 1h 22mn
Bit rate                                 : 11.2 Mbps
Width                                    : 1 920 pixels
Height                                   : 1 080 pixels
Display aspect ratio                     : 16:9
Frame rate mode                          : Constant
Frame rate                               : 23.976 fps
Color space                              : YUV
Chroma subsampling                       : 4:2:0
Bit depth                                : 8 bits
Scan type                                : Progressive
Bits/(Pixel*Frame)                       : 0.225
Stream size                              : 6.44 GiB (86%)
Writing library                          : x264 core 108 r1790 8eaf8a6
Encoding settings                        : cabac=1 / ref=4 / deblock=1:0:0 / analyse=0x3:0x133 / me=umh / subme=7 / psy=1 / psy_rd=1.00:0.00 / mixed_ref=1 / me_range=16 / chroma_me=1 / trellis=1 / 8x8dct=1 / cqm=0 / deadzone=21,11 / fast_pskip=0 / chroma_qp_offset=-2 / threads=12 / sliced_threads=0 / nr=0 / decimate=1 / interlaced=0 / constrained_intra=0 / bframes=3 / b_pyramid=2 / b_adapt=1 / b_bias=0 / direct=1 / weightb=1 / open_gop=0 / weightp=2 / keyint=250 / keyint_min=23 / scenecut=40 / intra_refresh=0 / rc_lookahead=40 / rc=crf / mbtree=1 / crf=20.0 / qcomp=0.60 / qpmin=10 / qpmax=51 / qpstep=4 / ip_ratio=1.40 / aq=1:1.00
Language                                 : English
Default                                  : Yes
Forced                                   : No

Audio
ID                                       : 2
Format                                   : DTS
Format/Info                              : Digital Theater Systems
Mode                                     : 16
Format settings, Endianness              : Big
Codec ID                                 : A_DTS
Duration                                 : 1h 22mn
Bit rate mode                            : Constant
Bit rate                                 : 1 509 Kbps
Channel(s)                               : 6 channels
Channel positions                        : Front: L C R, Side: L R, LFE
Sampling rate                            : 48.0 KHz
Frame rate                               : 93.750 fps (512 spf)
Bit depth                                : 24 bits
Compression mode                         : Lossy
Stream size                              : 889 MiB (12%)
Language                                 : English
Default                                  : No
Forced                                   : No





                                                                                                                                                                                                       

                                                                                                                       
                                                                                                                                                                                                                                                        Cats.And.Dogs.The.Revenge.of.Kitty.Galore.2010.1080p.BluRay.x264.DTS-FGT.torrent (75.26 KB, 下载次数: 204)

回复

使用道具 举报

小黑屋|百度云资源论坛 |网站地图

本网站所有资源来自网络,如无意中侵犯了您的权益,请发邮件至 [email protected],立即清除相关链接

GMT+8, 2019-5-27 02:38 , Processed in 0.074426 second(s), 23 queries .

Powered by Discuz! X3.2

© 2001-2013 Comsenz Inc.

快速回复 返回顶部 返回列表