百度云资源论坛

 找回密码
 立即注册
搜索

[剧情片] [BT下载]耶稣传 The.Jesus.Film.1979.1080p.BluRay.x264.DD5.1-FGT 19.27GB

[复制链接]
电影首发 发表于 2016-3-20 10:17:00 | 显示全部楼层 |阅读模式

译  名 耶稣传
片  名 Jesus
年  代 1979
国  家 美国
类  别 传记/剧情/家庭/历史
语  言 英语
上映日期 1979-10-19
片  长 117 分钟
导  演 John Krish / Peter Sykes
主  演 Brian Deacon ....  Jesus
      Rivka Neuman ....  Mary
      Niko Nitai ....  Simon Peter


简  介


  《耶稣传》是一部根据路加福音而编写的两小时影片。此片被誉为是最准确描述耶稣基督的生平的影片。


  《耶稣传》计划的目的是要让世界上的每一个人都能够观看以他们本身的语言配音的《耶稣传》影片。无论您是说中文、法文或其他四百多种的语言,您最终都可以透过您本身的语言去认识耶稣。


  透过《耶稣传》计划及超过八百个基督教团体的合作,全球已有超过十亿一千万人观赏过这部富有震撼力的影片,而大部份人都是藉着他们自己的语言去观赏这关於耶稣的故事。


  几个令你惊讶的数据:


  


  Official Ministry Statistics--October 1, 2005


  


  Translation Progress  


   "JESUS" film translations completed: 899


   Translations available in audio version only: 15


   Total number of different languages: 914


   "JESUS" film translations in process: 238


   "The Story of Jesus" audio translations completed: 360


   "The Story of Jesus for Children" video translations completed: 100


  


  Distribution Totals Since 1979


   "JESUS" film prints put into circulation (8mm, 16mm, 35mm): 16,327


   "JESUS" videocassettes, DVDs, VCDs in circulation: 42,473,516


   "The Story of Jesus" audiocassettes in circulation: 13,235,589


   "The Story of Jesus for Children" videocassettes in circulation: 775,746


  


  Viewing Audience of the "JESUS" Film1


   Viewing audience of the film since 1979: 5,412,055,777


   Indicated decisions for Christ as a result of the film:2 201,222,001


   Countries in which the film has been shown: 228


   Countries where the film has been seen on television: 176


  


  Listening Audience of "The Story of Jesus" Audio Version  


   Radio listeners: 447,074,422


   Audiocassette listeners:  177,532,030


  


  Cumulative Viewing and Listening Audience: 6,036,662,229


  


  Film Teams


   JESUS Film Project teams: 2,419


   Countries where JESUS Film Project-sponsored teams operate: 106


   Team personnel:3 4,966


   Denominations and mission agencies using the film: 1,539


  


  1 Includes all versions, including "The Story of Jesus for Children" and multiple viewings.


  2 Recorded only at live showings.


  3 Includes team supervisors.


Video
ID                                       : 1
Format                                   : AVC
Format/Info                              : Advanced Video Codec
Format profile                           : [email protected]
Format settings, CABAC                   : Yes
Format settings, ReFrames                : 4 frames
Codec ID                                 : V_MPEG4/ISO/AVC
Duration                                 : 2h 7mn
Bit rate                                 : 20.5 Mbps
Width                                    : 1 920 pixels
Height                                   : 1 080 pixels
Display aspect ratio                     : 16:9
Frame rate mode                          : Constant
Frame rate                               : 23.976 (24000/1001) fps
Color space                              : YUV
Chroma subsampling                       : 4:2:0
Bit depth                                : 8 bits
Scan type                                : Progressive
Bits/(Pixel*Frame)                       : 0.413
Stream size                              : 18.3 GiB (95%)
Writing library                          : x264 core 148 r2665kMod a01e339
Encoding settings                        : cabac=1 / ref=4 / deblock=1:-3:-3 / analyse=0x3:0x133 / me=umh / subme=10 / psy=1 / fade_compensate=0.00 / psy_rd=0.90:0.00 / mixed_ref=1 / me_range=48 / chroma_me=1 / trellis=2 / 8x8dct=1 / cqm=0 / deadzone=21,11 / fast_pskip=0 / chroma_qp_offset=-2 / threads=12 / lookahead_threads=1 / sliced_threads=0 / nr=0 / decimate=0 / interlaced=0 / bluray_compat=0 / constrained_intra=0 / fgo=0 / bframes=6 / b_pyramid=2 / b_adapt=2 / b_bias=0 / direct=3 / weightb=1 / open_gop=0 / weightp=2 / keyint=250 / keyint_min=23 / scenecut=40 / intra_refresh=0 / rc_lookahead=40 / rc=crf / mbtree=0 / crf=18.0000 / qcomp=0.70 / qpmin=0 / qpmax=69 / qpstep=4 / vbv_maxrate=50000 / vbv_bufsize=62500 / crf_max=0.0 / nal_hrd=none / filler=0 / ip_ratio=1.10 / pb_ratio=1.10 / aq=1:0.50
Language                                 : English
Default                                  : Yes
Forced                                   : No
Color range                              : Limited
Color primaries                          : BT.709
Transfer characteristics                 : BT.709
Matrix coefficients                      : BT.709

Audio
ID                                       : 2
Format                                   : AC-3
Format/Info                              : Audio Coding 3
Mode extension                           : CM (complete main)
Format settings, Endianness              : Big
Codec ID                                 : A_AC3
Duration                                 : 2h 7mn
Bit rate mode                            : Constant
Bit rate                                 : 640 Kbps
Channel(s)                               : 6 channels
Channel positions                        : Front: L C R, Side: L R, LFE
Sampling rate                            : 48.0 KHz
Frame rate                               : 31.250 fps (1536 spf)
Compression mode                         : Lossy
Stream size                              : 585 MiB (3%)
Language                                 : English
Default                                  : Yes
Forced                                   : No

Text
ID                                       : 3
Format                                   : PGS
Muxing mode                              : zlib
Codec ID                                 : S_HDMV/PGS
Codec ID/Info                            : Picture based subtitle format used on BDs/HD-DVDs
Language                                 : English
Default                                  : No
Forced                                   : No

Menu
00:00:00.000                             : en:00:00:00.000
00:07:59.896                             : en:00:07:59.896
00:14:13.895                             : en:00:14:13.895
00:27:03.539                             : en:00:27:03.539
00:40:27.425                             : en:00:40:27.425
00:55:38.961                             : en:00:55:38.961
01:15:09.964                             : en:01:15:09.964
01:23:27.211                             : en:01:23:27.211
01:32:51.983                             : en:01:32:51.983
01:43:11.018                             : en:01:43:11.018
01:56:35.322                             : en:01:56:35.322
01:59:17.567                             : en:01:59:17.567





                                                                                                                                                                                                       

                                                                                                                       
                                                                                                                                                                                                                                                        The.Jesus.Film.1979.1080p.BluRay.x264.DD5.1-FGT.torrent (96.96 KB, 下载次数: 89)

回复

使用道具 举报

小黑屋|百度云资源论坛 |网站地图

本网站所有资源来自网络,如无意中侵犯了您的权益,请发邮件至 [email protected],立即清除相关链接

GMT+8, 2019-5-20 02:51 , Processed in 0.056006 second(s), 23 queries .

Powered by Discuz! X3.2

© 2001-2013 Comsenz Inc.

快速回复 返回顶部 返回列表