磁力链接吧

 找回密码
 立即注册
搜索

[动作片] [BT下载]守望者/保卫奇侠 Watchmen.2009.Ultimate.Cut.1080p.BluRay.x264.DTS-FGT 23. ...

[复制链接]
电影首发 发表于 2016-3-20 10:17:00 | 显示全部楼层 |阅读模式

译  名 守望者/保卫奇侠/守护者
片  名 Watchmen
年  代 2009
国  家 美国
类  别 动作/犯罪/奇幻/悬疑/科幻/惊悚
语  言 英语
上映日期 2009-03-06(美国)
片  长 162 分钟/186 分钟(导演剪辑版)/215 分钟(终极剪辑版)
导  演 扎克·施奈德 Zack Snyder
主  演 帕特里克·威尔森 Patrick Wilson
      卡拉·古奇诺 Carla Gugino
      比利·克鲁德普 Billy Crudup
      玛琳·阿克曼 Malin Akerman
      杰弗里·迪恩·摩根 Jeffrey Dean Morgan
      马修·古迪 Matthew Goode
      杰基·厄尔·哈利 Jackie Earle Haley


简  介


  由于邪恶势力肆意蔓延,一群具有超群实力的正义之士挺身而出,他们戴着面具,身着奇装异服,与各种坏蛋展开较量。不久,他们的英雄事迹通过媒体传遍全国,美元钞票、丝绸鬼魂、罗夏、城市队长等超级英雄的名字广为传播,他们更参与到大大小小的重大事件之中,也因各自的性格遭受着不同的命运。但是在20世纪70年代,政府出台的法令导致一部分不愿成为权贵爪牙的英雄退休,超级英雄集团由此分化。
  1985年的一天,效力政府的超级英雄“喜剧演员”爱德华·布莱克(杰弗里·迪恩·摩根 Jeffrey Dean Morgan 饰)被人杀害。四处逃亡的“罗夏”的沃尔特·科瓦奇(杰基·厄尔·哈利 Jackie Earle Haley 饰)意识到有人正向曾经的超级英雄痛下杀手,而这背后隐藏着更大的阴谋……


获奖情况


  第11届美国青少年选择奖  (2009)
  最佳动作冒险电影女演员(提名) 玛琳·阿克曼


Video
ID                                       : 1
Format                                   : AVC
Format/Info                              : Advanced Video Codec
Format profile                           : [email protected]
Format settings, CABAC                   : Yes
Format settings, ReFrames                : 5 frames
Codec ID                                 : V_MPEG4/ISO/AVC
Duration                                 : 3h 35mn
Bit rate                                 : 14.0 Mbps
Width                                    : 1 920 pixels
Height                                   : 800 pixels
Display aspect ratio                     : 2.40:1
Frame rate mode                          : Constant
Frame rate                               : 23.976 (24000/1001) fps
Color space                              : YUV
Chroma subsampling                       : 4:2:0
Bit depth                                : 8 bits
Scan type                                : Progressive
Bits/(Pixel*Frame)                       : 0.379
Stream size                              : 21.0 GiB (88%)
Writing library                          : x264 core 128 r2216kMod 198a7ea
Encoding settings                        : cabac=1 / ref=5 / deblock=1:-3:-3 / analyse=0x3:0x133 / me=umh / subme=11 / psy=1 / fade_compensate=0.00 / psy_rd=1.05:0.10 / mixed_ref=1 / me_range=48 / chroma_me=1 / trellis=2 / 8x8dct=1 / cqm=0 / deadzone=21,11 / fast_pskip=0 / chroma_qp_offset=-3 / threads=12 / lookahead_threads=2 / sliced_threads=0 / nr=0 / decimate=1 / interlaced=0 / bluray_compat=0 / constrained_intra=0 / bframes=16 / b_pyramid=2 / b_adapt=2 / b_bias=0 / direct=3 / weightb=1 / open_gop=0 / weightp=2 / keyint=240 / keyint_min=23 / scenecut=40 / intra_refresh=0 / rc=crf / mbtree=0 / crf=17.5000 / qcomp=0.70 / qpmin=0 / qpmax=69 / qpstep=4 / ip_ratio=1.30 / pb_ratio=1.20 / aq=1:0.75 / zones=34255,37425,psy-rd=0.50:0.00,aq-strength=0.6,deblock=0:0/89000,91510,psy-rd=0.50:0.00,aq-strength=0.6,deblock=0:0/109587,115894,psy-rd=0.50:0.00,aq-strength=0.6,deblock=0:0/155717,159338,psy-rd=0.50:0.00,aq-strength=0.6,deblock=0:0/185743,191601,psy-rd=0.50:0.00,aq-strength=0.6,deblock=0:0/238060,243894,psy-rd=0.50:0.00,aq-strength=0.6,deblock=0:0/265060,267600,psy-rd=0.50:0.00,aq-strength=0.6,deblock=0:0
Language                                 : English
Default                                  : Yes
Forced                                   : No

Audio
ID                                       : 2
Format                                   : DTS
Format/Info                              : Digital Theater Systems
Mode                                     : 16
Format settings, Endianness              : Big
Codec ID                                 : A_DTS
Duration                                 : 3h 35mn
Bit rate mode                            : Constant
Bit rate                                 : 1 509 Kbps
Channel(s)                               : 6 channels
Channel positions                        : Front: L C R, Side: L R, LFE
Sampling rate                            : 48.0 KHz
Frame rate                               : 93.750 fps (512 spf)
Bit depth                                : 16 bits
Compression mode                         : Lossy
Stream size                              : 2.27 GiB (10%)
Language                                 : English
Default                                  : Yes
Forced                                   : No

Text #1
ID                                       : 3
Format                                   : UTF-8
Codec ID                                 : S_TEXT/UTF8
Codec ID/Info                            : UTF-8 Plain Text
Language                                 : English
Default                                  : No
Forced                                   : No

Text #2
ID                                       : 4
Format                                   : UTF-8
Codec ID                                 : S_TEXT/UTF8
Codec ID/Info                            : UTF-8 Plain Text
Title                                    : SDH
Language                                 : English
Default                                  : No
Forced                                   : No

Menu
00:00:00.000                             : :Chapter 01
00:05:42.008                             : :Chapter 02
00:11:16.509                             : :Chapter 03
00:16:05.339                             : :Chapter 04
00:19:05.561                             : :Chapter 05
00:23:48.718                             : :Chapter 06
00:26:53.403                             : :Chapter 07
00:29:44.115                             : :Chapter 08
00:34:42.580                             : :Chapter 09
00:39:31.494                             : :Chapter 10
00:44:06.018                             : :Chapter 11
00:48:03.255                             : :Chapter 12
00:50:31.945                             : :Chapter 13
00:54:45.198                             : :Chapter 14
00:59:14.842                             : :Chapter 15
01:01:19.634                             : :Chapter 16
01:03:36.813                             : :Chapter 17
01:06:15.262                             : :Chapter 18
01:09:29.582                             : :Chapter 19
01:16:10.732                             : :Chapter 20
01:20:53.139                             : :Chapter 21
01:23:12.987                             : :Chapter 22
01:26:44.616                             : :Chapter 23
01:28:45.987                             : :Chapter 24
01:31:46.250                             : :Chapter 25
01:36:50.805                             : :Chapter 26
01:41:16.695                             : :Chapter 27
01:47:08.213                             : :Chapter 28
01:50:40.550                             : :Chapter 29
01:54:04.879                             : :Chapter 30
01:59:51.934                             : :Chapter 31
02:09:07.072                             : :Chapter 32
02:13:44.057                             : :Chapter 33
02:15:31.123                             : :Chapter 34
02:20:35.009                             : :Chapter 35
02:23:39.152                             : :Chapter 36
02:27:55.616                             : :Chapter 37
02:32:50.619                             : :Chapter 38
02:37:03.831                             : :Chapter 39
02:39:45.993                             : :Chapter 40
02:44:40.704                             : :Chapter 41
02:49:32.495                             : :Chapter 42
02:56:16.399                             : :Chapter 43
02:58:59.145                             : :Chapter 44
03:04:13.959                             : :Chapter 45
03:06:16.081                             : :Chapter 46
03:10:27.916                             : :Chapter 47
03:14:07.427                             : :Chapter 48
03:17:31.130                             : :Chapter 49
03:20:01.656                             : :Chapter 50
03:24:40.351                             : :Chapter 51







                                                                                                                                                                                                       

                                                                                                                       
                                                                                                                                                                                                                                                        Watchmen.2009.Ultimate.Cut.1080p.BluRay.x264.DTS-FGT.torrent (60.01 KB, 下载次数: 499)

回复

使用道具 举报

小黑屋|磁力链接吧 |网站地图

本网站所有资源来自网络,如无意中侵犯了您的权益,请发邮件至 [email protected],立即清除相关链接

GMT+8, 2019-8-18 19:34 , Processed in 0.088286 second(s), 23 queries .

Powered by Discuz! X3.2

© 2001-2013 Comsenz Inc.

快速回复 返回顶部 返回列表