百度云资源论坛

 找回密码
 立即注册
搜索

[恐怖片] [BT下载]美版 咒怨 The.Grudge.2004.UNRATED.1080p.BluRay.x264-FSiHD 6.56GB

[复制链接]
电影首发 发表于 2016-3-20 10:17:00 | 显示全部楼层 |阅读模式

译  名 咒怨(美版)/美版咒怨/咒怨西洋篇/不死咒怨
片  名 The Grudge
年  代 2004
国  家 美国/日本/德国
类  别 悬疑/恐怖
语  言 英语/日语
上映日期 2004-10-22
片  长 92 分钟/South Korea: 97 分钟(uncut version)/Japan: 98 分钟
导  演 清水崇
主  演 莎拉·米歇尔·盖拉 Sarah Michelle Gellar
      比尔·普尔曼 Bill Pullman
      杰森·贝尔 Jason Behr
      克里·杜瓦尔 Clea DuVall
      卡迪·斯特瑞兰德 KaDee Strickland


简  介


  作为一名来日本念书的美国学生,嘉云(莎拉·米歇尔·盖拉 Sarah Michelle Gellar 饰)一直过着半工半读的生活。这一次,她接受了一份看护患了僵直症的老人艾玛(Grace Zabriskie 饰)的工作。艾玛独自居住在一间大宅里,这里的破败和荒芜充分显示了它和老人被时间遗忘的痕迹,而对于艾玛诡异的行为举止,嘉云也仅仅觉得是她的神经出了问题罢了。
  随着时间的推移,嘉云感到似乎有某些极为可怕的东西藏在这所房子的阴影中。无人的楼梯上传来声响,长相怪异的男孩忽闪忽现,所有的迹象都指向一点——在这所古老的房子里,她是那个不受欢迎的人。身边的人连遭厄运,这里究竟发生过怎样的故事才导致了如今的咒怨作祟?嘉云决心调查到底。


获奖情况


  第14届MTV电影奖  (2005)
  MTV电影奖 最佳惊恐戏表演(提名) 莎拉·米歇尔·盖拉



Video
ID                                       : 1
Format                                   : AVC
Format/Info                              : Advanced Video Codec
Format profile                           : [email protected]
Format settings, CABAC                   : Yes
Format settings, ReFrames                : 4 frames
Codec ID                                 : V_MPEG4/ISO/AVC
Duration                                 : 1h 38mn
Bit rate                                 : 8 923 Kbps
Width                                    : 1 920 pixels
Height                                   : 1 040 pixels
Display aspect ratio                     : 1.85:1
Frame rate mode                          : Constant
Frame rate                               : 23.976 fps
Color space                              : YUV
Chroma subsampling                       : 4:2:0
Bit depth                                : 8 bits
Scan type                                : Progressive
Bits/(Pixel*Frame)                       : 0.186
Stream size                              : 5.99 GiB (91%)
Writing library                          : x264 core 92 r1523 25ca5b0
Encoding settings                        : cabac=1 / ref=4 / deblock=1:0:0 / analyse=0x3:0x133 / me=umh / subme=8 / psy=1 / psy_rd=1.00:0.00 / mixed_ref=1 / me_range=16 / chroma_me=1 / trellis=1 / 8x8dct=1 / cqm=0 / deadzone=21,11 / fast_pskip=0 / chroma_qp_offset=-2 / threads=12 / sliced_threads=0 / nr=0 / decimate=1 / interlaced=0 / constrained_intra=0 / bframes=3 / b_pyramid=2 / b_adapt=1 / b_bias=0 / direct=1 / wpredb=1 / wpredp=2 / keyint=250 / keyint_min=25 / scenecut=40 / intra_refresh=0 / rc_lookahead=40 / rc=2pass / mbtree=1 / bitrate=8923 / ratetol=1.0 / qcomp=0.60 / qpmin=10 / qpmax=51 / qpstep=4 / cplxblur=20.0 / qblur=0.5 / ip_ratio=1.40 / aq=1:1.00
Language                                 : English
Default                                  : No
Forced                                   : No

Audio
ID                                       : 2
Format                                   : AC-3
Format/Info                              : Audio Coding 3
Mode extension                           : CM (complete main)
Format settings, Endianness              : Big
Codec ID                                 : A_AC3
Duration                                 : 1h 38mn
Bit rate mode                            : Constant
Bit rate                                 : 640 Kbps
Channel(s)                               : 6 channels
Channel positions                        : Front: L C R, Side: L R, LFE
Sampling rate                            : 48.0 KHz
Frame rate                               : 31.250 fps (1536 spf)
Compression mode                         : Lossy
Stream size                              : 450 MiB (7%)
Default                                  : Yes
Forced                                   : No

Text #1
ID                                       : 3
Format                                   : UTF-8
Codec ID                                 : S_TEXT/UTF8
Codec ID/Info                            : UTF-8 Plain Text
Title                                    : eng
Language                                 : English
Default                                  : Yes
Forced                                   : No

Text #2
ID                                       : 4
Format                                   : UTF-8
Codec ID                                 : S_TEXT/UTF8
Codec ID/Info                            : UTF-8 Plain Text
Title                                    : eng-forced
Language                                 : English
Default                                  : No
Forced                                   : No

Text #3
ID                                       : 5
Format                                   : UTF-8
Codec ID                                 : S_TEXT/UTF8
Codec ID/Info                            : UTF-8 Plain Text
Title                                    : fre
Language                                 : French
Default                                  : No
Forced                                   : No

Menu
00:00:00.000                             : en:00:00:00.000
00:07:52.931                             : en:00:07:52.931
00:12:27.789                             : en:00:12:27.789
00:18:35.072                             : en:00:18:35.072
00:23:08.929                             : en:00:23:08.929
00:30:11.351                             : en:00:30:11.351
00:39:23.486                             : en:00:39:23.486
00:42:41.601                             : en:00:42:41.601
00:48:06.550                             : en:00:48:06.550
00:51:19.743                             : en:00:51:19.743
00:56:56.913                             : en:00:56:56.913
01:02:49.140                             : en:01:02:49.140
01:09:18.070                             : en:01:09:18.070
01:15:34.655                             : en:01:15:34.655
01:23:32.716                             : en:01:23:32.716
01:32:43.015                             : en:01:32:43.015





                                                                                                                                                                                                       

                                                                                                                       
                                                                                                                                                                                                                                                        The.Grudge.2004.UNRATED.1080p.BluRay.x264-FSiHD.torrent (66.09 KB, 下载次数: 130)

回复

使用道具 举报

小黑屋|百度云资源论坛 |网站地图

本网站所有资源来自网络,如无意中侵犯了您的权益,请发邮件至 [email protected],立即清除相关链接

GMT+8, 2019-5-20 03:08 , Processed in 0.056266 second(s), 23 queries .

Powered by Discuz! X3.2

© 2001-2013 Comsenz Inc.

快速回复 返回顶部 返回列表