磁力链接吧

 找回密码
 立即注册
搜索

[恐怖片] [BT下载]美版 咒怨2 The.Grudge.2.2006.1080p.BluRay.x264.DTS-FGT 12.7GB

[复制链接]
电影首发 发表于 2016-3-20 10:17:00 | 显示全部楼层 |阅读模式

译  名 咒怨2(美版)/咒怨2/不死咒怨2/鬼迷藏/美国版咒怨2
片  名 The Grudge 2
年  代 2006
国  家 美国
类  别 悬疑/恐怖
语  言 英语/日语
上映日期 2006-10-12
片  长 102 分钟/108 分钟(Unrated Director's Cut)
导  演 清水崇
主  演 爱波·塔布琳 Amber Tamblyn
      莎拉·米歇尔·盖拉 Sarah Michelle Gellar
      阿莉尔·凯贝尔 Arielle Kebbel
      藤贵子 Takako Fuji
      陈冠希 Edison Chen
      马修·奈特 Matthew Knight
      泰莉莎·帕尔墨 Teresa Palmer


简  介


  对于奥布莉(爱波·塔布琳 Amber Tamblyn 饰)来说,姐姐凯伦(莎拉·米歇尔·盖拉 Sarah Michelle Gellar 饰)的死充满了疑点。两年前,凯伦远赴日本求学,不久之后奥布莉一家就收到了凯伦被关入精神病院的噩耗,而现在,曾经善良美丽的姐姐已经变成了一具冰冷的尸体。奥布莉坚信其中必有古怪,因此,她和专门报道灵异事件的记者伊森(陈冠希 饰)联手,对老房子中的咒怨展开了调查。
  同一时间,在世界各地,发生了数件离奇死亡事件,而死者与咒怨均有着千丝万缕的关联。咒怨果真这样无孔不入吗?究竟又是谁在背后操纵着这股强大的力量呢?


Video
ID                                       : 1
Format                                   : AVC
Format/Info                              : Advanced Video Codec
Format profile                           : [email protected]
Format settings, CABAC                   : Yes
Format settings, ReFrames                : 4 frames
Codec ID                                 : V_MPEG4/ISO/AVC
Duration                                 : 1h 47mn
Bit rate                                 : 15.0 Mbps
Width                                    : 1 920 pixels
Height                                   : 1 080 pixels
Display aspect ratio                     : 16:9
Frame rate mode                          : Constant
Frame rate                               : 23.976 (24000/1001) fps
Color space                              : YUV
Chroma subsampling                       : 4:2:0
Bit depth                                : 8 bits
Scan type                                : Progressive
Bits/(Pixel*Frame)                       : 0.302
Stream size                              : 11.3 GiB (89%)
Writing library                          : x264 core 146 r2538 121396c
Encoding settings                        : cabac=1 / ref=4 / deblock=1:-1:-1 / analyse=0x3:0x113 / me=umh / subme=10 / psy=1 / psy_rd=1.00:0.15 / mixed_ref=1 / me_range=32 / chroma_me=1 / trellis=2 / 8x8dct=1 / cqm=0 / deadzone=21,11 / fast_pskip=1 / chroma_qp_offset=-3 / threads=6 / lookahead_threads=1 / sliced_threads=0 / nr=0 / decimate=1 / interlaced=0 / bluray_compat=0 / constrained_intra=0 / bframes=8 / b_pyramid=2 / b_adapt=2 / b_bias=0 / direct=1 / weightb=1 / open_gop=0 / weightp=2 / keyint=230 / keyint_min=23 / scenecut=40 / intra_refresh=0 / rc_lookahead=40 / rc=crf / mbtree=0 / crf=19.7 / qcomp=0.60 / qpmin=0 / qpmax=69 / qpstep=4 / vbv_maxrate=40000 / vbv_bufsize=50000 / crf_max=0.0 / nal_hrd=none / filler=0 / ip_ratio=1.40 / pb_ratio=1.30 / aq=1:1.00
Language                                 : English
Default                                  : Yes
Forced                                   : No

Audio
ID                                       : 2
Format                                   : DTS
Format/Info                              : Digital Theater Systems
Mode                                     : 16
Format settings, Endianness              : Big
Codec ID                                 : A_DTS
Duration                                 : 1h 47mn
Bit rate mode                            : Constant
Bit rate                                 : 1 509 Kbps
Channel(s)                               : 6 channels
Channel positions                        : Front: L C R, Side: L R, LFE
Sampling rate                            : 48.0 KHz
Frame rate                               : 93.750 fps (512 spf)
Bit depth                                : 16 bits
Compression mode                         : Lossy
Stream size                              : 1.14 GiB (9%)
Language                                 : English
Default                                  : Yes
Forced                                   : No

Text
ID                                       : 3
Format                                   : UTF-8
Codec ID                                 : S_TEXT/UTF8
Codec ID/Info                            : UTF-8 Plain Text
Language                                 : English
Default                                  : Yes
Forced                                   : No






                                                                                                                                                                                                       

                                                                                                                       
                                                                                                                                                                                                                                                        The.Grudge.2.2006.1080p.BluRay.x264.DTS-FGT.torrent (64.1 KB, 下载次数: 150)

回复

使用道具 举报

小黑屋|磁力链接吧 |网站地图

本网站所有资源来自网络,如无意中侵犯了您的权益,请发邮件至 [email protected],立即清除相关链接

GMT+8, 2019-10-20 15:32 , Processed in 0.139528 second(s), 23 queries .

Powered by Discuz! X3.2

© 2001-2013 Comsenz Inc.

快速回复 返回顶部 返回列表