百度云资源论坛

 找回密码
 立即注册
搜索

[恐怖片] [BT下载]美版 咒怨3 The.Grudge.3.2009.1080p.BluRay.x264.DTS-FGT 7.53GB

[复制链接]
电影首发 发表于 2016-3-20 10:17:00 | 显示全部楼层 |阅读模式

译  名 咒怨3(美版)/美版咒怨3
片  名 The Grudge 3
年  代 2009
国  家 美国
类  别 恐怖
语  言 英语/日语
上映日期 2009-05-12
片  长 90 分钟
导  演 托比·维尔金森 Toby Wilkins
主  演 玛丽娜·赛提斯 Marina Sirtis
      肖妮·史密斯 Shawnee Smith
      马修·奈特 Matthew Knight
      博·米尔乔夫 Beau Mirchoff


简  介


  杰克•金伯勒(Matthew Knight 饰)一家的血腥灭门惨案轰动全芝加哥,而杰克本人也在严密监视的精神病院近乎病房中被残忍杀害。从此,金伯勒家所在的公寓成为全城闻名的凶宅,住户纷纷搬离此地。只有公寓管理员麦克斯(Gil McKinney 饰)和他的妹妹萝丝(Jadie Hobson 饰)、侄女丽莎(Johanna Braddy 饰)坚持住在这里。年幼多病的萝丝似乎能够看到那名面色惨白的男孩,麦克斯的状态也变得越来越怪。
  加耶子的妹妹直子(Emi Ikehata 饰)通过报纸来到这座公寓,她知道加耶子的怨念还没有终结,这个恶灵新的杀戮才刚刚开始……


Video
ID                                       : 1
Format                                   : AVC
Format/Info                              : Advanced Video Codec
Format profile                           : [email protected]
Format settings, CABAC                   : Yes
Format settings, ReFrames                : 4 frames
Codec ID                                 : V_MPEG4/ISO/AVC
Duration                                 : 1h 30mn
Bit rate                                 : 10.9 Mbps
Nominal bit rate                         : 11.5 Mbps
Width                                    : 1 916 pixels
Height                                   : 1 040 pixels
Display aspect ratio                     : 1.85:1
Frame rate mode                          : Constant
Frame rate                               : 23.976 (24000/1001) fps
Color space                              : YUV
Chroma subsampling                       : 4:2:0
Bit depth                                : 8 bits
Scan type                                : Progressive
Bits/(Pixel*Frame)                       : 0.228
Stream size                              : 6.90 GiB (92%)
Writing library                          : x264 core 148 r2638 7599210
Encoding settings                        : cabac=1 / ref=4 / deblock=1:-2:-2 / analyse=0x3:0x113 / me=umh / subme=7 / psy=1 / psy_rd=1.00:0.15 / mixed_ref=1 / me_range=16 / chroma_me=1 / trellis=1 / 8x8dct=1 / cqm=0 / deadzone=21,11 / fast_pskip=1 / chroma_qp_offset=-3 / threads=12 / lookahead_threads=3 / sliced_threads=0 / nr=0 / decimate=1 / interlaced=0 / bluray_compat=0 / constrained_intra=0 / bframes=3 / b_pyramid=2 / b_adapt=2 / b_bias=0 / direct=3 / weightb=1 / open_gop=0 / weightp=2 / keyint=250 / keyint_min=25 / scenecut=40 / intra_refresh=0 / rc_lookahead=50 / rc=abr / mbtree=1 / bitrate=11500 / ratetol=1.0 / qcomp=0.60 / qpmin=0 / qpmax=69 / qpstep=4 / vbv_maxrate=31250 / vbv_bufsize=31250 / nal_hrd=none / filler=0 / ip_ratio=1.40 / aq=1:1.00
Language                                 : English
Default                                  : Yes
Forced                                   : No

Audio
ID                                       : 2
Format                                   : DTS
Format/Info                              : Digital Theater Systems
Mode                                     : 16
Format settings, Endianness              : Big
Codec ID                                 : A_DTS
Duration                                 : 1h 30mn
Bit rate mode                            : Constant
Bit rate                                 : 768 Kbps
Channel(s)                               : 6 channels
Channel positions                        : Front: L C R, Side: L R, LFE
Sampling rate                            : 48.0 KHz
Frame rate                               : 93.750 fps (512 spf)
Bit depth                                : 24 bits
Compression mode                         : Lossy
Stream size                              : 497 MiB (6%)
Language                                 : English
Default                                  : Yes
Forced                                   : No

Text
ID                                       : 3
Format                                   : UTF-8
Codec ID                                 : S_TEXT/UTF8
Codec ID/Info                            : UTF-8 Plain Text
Language                                 : English
Default                                  : Yes
Forced                                   : No

Menu
00:00:05.000                             : en:Chapter 1
00:08:32.000                             : en:Chapter 2
00:15:14.100                             : en:Chapter 3
00:23:36.500                             : en:Chapter 4
00:31:09.600                             : en:Chapter 5
00:38:41.000                             : en:Chapter 6
00:47:33.300                             : en:Chapter 7
00:57:15.900                             : en:Chapter 8
01:04:44.500                             : en:Chapter 9
01:10:18.600                             : en:Chapter 10
01:18:59.500                             : en:Chapter 11
01:23:42.300                             : en:Chapter 12
01:27:03.000                             : en:Chapter 13





                                                                                                                                                                                                       

                                                                                                                       
                                                                                                                                                                                                                                                        The.Grudge.3.2009.1080p.BluRay.x264.DTS-FGT.torrent (75.92 KB, 下载次数: 159)

回复

使用道具 举报

小黑屋|磁力链接吧 |网站地图

本网站所有资源来自网络,如无意中侵犯了您的权益,请发邮件至 [email protected],立即清除相关链接

GMT+8, 2019-7-19 17:08 , Processed in 0.076754 second(s), 23 queries .

Powered by Discuz! X3.2

© 2001-2013 Comsenz Inc.

快速回复 返回顶部 返回列表