磁力链接吧

 找回密码
 立即注册
搜索

[BT下载]查理·瓦伦丁/查理情人 Charlie.Valentine.2009.1080p.BluRay.x264.DTS-FGT 5 ...

[复制链接]
电影首发 发表于 2016-3-20 10:17:00 | 显示全部楼层 |阅读模式

译  名 查理·瓦伦丁/查理情人
片  名 Charlie Valentine
年  代 2009
国  家 美国
类  别 剧情
语  言 英语
上映日期 2009-03-01
片  长 USA: 96 分钟
导  演 Jesse V. Johnson
主  演 Michael Weatherly
      Keith David
      Tom Berenger


简  介


  查理·瓦伦丁这个臭名昭著的犯罪的暴徒头领试图在退休之前进行最后一次抢劫。这次抢劫准备的不顺利,但是他被迫继续进行。他向自己疏远的儿子丹尼寻求帮助,查理·瓦伦丁发现自己在教儿子骗局的技巧。在企图诈骗丹尼的老板后,一群黑帮尾随而至。瓦伦丁必须决定他是否有足够的善良去救他唯一的儿子,这个儿子可能会因瓦伦丁的错误而死。


Video
ID                                       : 1
Format                                   : AVC
Format/Info                              : Advanced Video Codec
Format profile                           : [email protected]
Format settings, CABAC                   : Yes
Format settings, ReFrames                : 5 frames
Codec ID                                 : V_MPEG4/ISO/AVC
Duration                                 : 1h 36mn
Bit rate                                 : 5 882 Kbps
Width                                    : 1 920 pixels
Height                                   : 720 pixels
Display aspect ratio                     : 2.667
Frame rate mode                          : Constant
Frame rate                               : 23.976 (24000/1001) fps
Color space                              : YUV
Chroma subsampling                       : 4:2:0
Bit depth                                : 8 bits
Scan type                                : Progressive
Bits/(Pixel*Frame)                       : 0.177
Stream size                              : 3.96 GiB (78%)
Writing library                          : x264 core 112 r1867 22bfd31
Encoding settings                        : cabac=1 / ref=5 / deblock=1:0:0 / analyse=0x3:0x133 / me=umh / subme=7 / psy=1 / psy_rd=1.00:0.00 / mixed_ref=1 / me_range=16 / chroma_me=1 / trellis=1 / 8x8dct=1 / cqm=0 / deadzone=21,11 / fast_pskip=0 / chroma_qp_offset=-2 / threads=12 / sliced_threads=0 / nr=0 / decimate=1 / interlaced=0 / constrained_intra=0 / bframes=3 / b_pyramid=2 / b_adapt=1 / b_bias=0 / direct=1 / weightb=1 / open_gop=0 / weightp=2 / keyint=250 / keyint_min=23 / scenecut=40 / intra_refresh=0 / rc_lookahead=40 / rc=crf / mbtree=1 / crf=20.0 / qcomp=0.60 / qpmin=10 / qpmax=51 / qpstep=4 / ip_ratio=1.40 / aq=1:1.00
Language                                 : English
Default                                  : Yes
Forced                                   : No

Audio
ID                                       : 2
Format                                   : DTS
Format/Info                              : Digital Theater Systems
Mode                                     : 16
Format settings, Endianness              : Big
Codec ID                                 : A_DTS
Duration                                 : 1h 36mn
Bit rate mode                            : Constant
Bit rate                                 : 1 509 Kbps
Channel(s)                               : 6 channels
Channel positions                        : Front: L C R, Side: L R, LFE
Sampling rate                            : 48.0 KHz
Frame rate                               : 93.750 fps (512 spf)
Bit depth                                : 24 bits
Compression mode                         : Lossy
Stream size                              : 1.02 GiB (20%)
Language                                 : English
Default                                  : Yes
Forced                                   : No





                                                                                                                                                                                                       

                                                                                                                       
                                                                                                                                                                                                                                                        Charlie.Valentine.2009.1080p.BluRay.x264.DTS-FGT.torrent (51.36 KB, 下载次数: 28)

回复

使用道具 举报

小黑屋|磁力链接吧 |网站地图

本网站所有资源来自网络,如无意中侵犯了您的权益,请发邮件至 [email protected],立即清除相关链接

GMT+8, 2019-9-17 21:41 , Processed in 0.077865 second(s), 23 queries .

Powered by Discuz! X3.2

© 2001-2013 Comsenz Inc.

快速回复 返回顶部 返回列表