百度云资源论坛

 找回密码
 立即注册
搜索

[剧情片] [BT下载]蓬门今始为君开/平静的人 The.Quiet.Man.1952.1080p.BluRay.x264.DTS-FGT 17. ...

[复制链接]
电影首发 发表于 2016-3-20 10:17:00 | 显示全部楼层 |阅读模式

译  名 蓬门今始为君开/平静的人
片  名 The Quiet Man
年  代 1952
国  家 美国
类  别 剧情/喜剧/爱情
语  言 英语/爱尔兰盖尔语
上映日期 1953-04-30
片  长 129 分钟
导  演 约翰·福特 John Ford
主  演 约翰·韦恩 John Wayne
      玛琳·奥哈拉 Maureen O'Hara


简  介


  桑顿是重量级拳王,因致命一击打死对手,从此退出拳坛,由美国返回故乡爱尔兰,隐居家乡间不问世事,返乡途中遇到玛丽惊为天人,被车夫麦克林调侃是口渴所产生的幻影。玛丽暗中帮桑顿打扫祖产,借此表情,桑顿托麦克林作媒,玛丽的哥哥威尔却多加阻挠,幸赖隆纳根神父和普雷佛牧师帮助才得以成亲。威尔喜欢提兰寡妇,故让玛丽出嫁,险谋被识破后恼羞成怒,只给玛丽一点点嫁妆。爱尔兰民风保守,玛丽认为扣留嫁妆是对丈夫的侮辱,经常抱怨要求取回,但桑顿无意争夺名利,玛利认为丈夫是个懦夫,怕村人取笑想逃离家乡,桑顿把她拖回娘家,并与威尔大打出手,一场恶斗威尔被打得口服心服,玛丽才知丈夫不是懦夫,尽释前嫌和好如初……


获奖情况


  第25届奥斯卡金像奖  (1953)
  最佳影片(提名) 约翰·福特 / 梅里安·C·库珀
  最佳导演 约翰·福特
  最佳男配角(提名) 维克托·麦克拉格伦
  最佳编剧(提名) 弗兰克·S·纽金特
  彩色片最佳摄影 Archie Stout / Winton C. Hoch
  最佳录音(提名) Daniel J. Bloomberg
  彩色片最佳艺术指导和布景(提名) John McCarthy Jr. / Charles S. Thompson / Frank Hotaling


Video
ID                                       : 1
Format                                   : AVC
Format/Info                              : Advanced Video Codec
Format profile                           : [email protected]
Format settings, CABAC                   : Yes
Format settings, ReFrames                : 4 frames
Codec ID                                 : V_MPEG4/ISO/AVC
Duration                                 : 2h 9mn
Bit rate                                 : 18.4 Mbps
Width                                    : 1 478 pixels
Height                                   : 1 080 pixels
Display aspect ratio                     : 4:3
Frame rate mode                          : Constant
Frame rate                               : 23.976 (24000/1001) fps
Color space                              : YUV
Chroma subsampling                       : 4:2:0
Bit depth                                : 8 bits
Scan type                                : Progressive
Bits/(Pixel*Frame)                       : 0.482
Stream size                              : 16.7 GiB (94%)
Writing library                          : x264 core 138 r2358 9e941d1
Encoding settings                        : cabac=1 / ref=4 / deblock=1:-1:-1 / analyse=0x3:0x113 / me=umh / subme=10 / psy=1 / psy_rd=1.00:0.15 / mixed_ref=1 / me_range=24 / chroma_me=1 / trellis=2 / 8x8dct=1 / cqm=0 / deadzone=21,11 / fast_pskip=0 / chroma_qp_offset=-3 / threads=6 / lookahead_threads=1 / sliced_threads=0 / nr=0 / decimate=1 / interlaced=0 / bluray_compat=0 / constrained_intra=0 / bframes=6 / b_pyramid=2 / b_adapt=2 / b_bias=0 / direct=1 / weightb=1 / open_gop=0 / weightp=2 / keyint=230 / keyint_min=23 / scenecut=40 / intra_refresh=0 / rc_lookahead=40 / rc=crf / mbtree=0 / crf=19.5 / qcomp=0.60 / qpmin=0 / qpmax=69 / qpstep=4 / vbv_maxrate=50000 / vbv_bufsize=62500 / crf_max=0.0 / nal_hrd=none / ip_ratio=1.40 / pb_ratio=1.30 / aq=1:1.00
Language                                 : English
Default                                  : Yes
Forced                                   : No

Audio
ID                                       : 2
Format                                   : DTS
Format/Info                              : Digital Theater Systems
Mode                                     : 16
Format settings, Endianness              : Big
Codec ID                                 : A_DTS
Duration                                 : 2h 9mn
Bit rate mode                            : Constant
Bit rate                                 : 768 Kbps
Channel(s)                               : 1 channel
Channel positions                        : Front: C
Sampling rate                            : 48.0 KHz
Frame rate                               : 93.750 fps (512 spf)
Bit depth                                : 16 bits
Compression mode                         : Lossy
Stream size                              : 713 MiB (4%)
Language                                 : English
Default                                  : Yes
Forced                                   : No

Text
ID                                       : 3
Format                                   : UTF-8
Codec ID                                 : S_TEXT/UTF8
Codec ID/Info                            : UTF-8 Plain Text
Language                                 : English
Default                                  : Yes
Forced                                   : No






                                                                                                                                                                                                       

                                                                                                                       
                                                                                                                                                                                                                                                        The.Quiet.Man.1952.1080p.BluRay.x264.DTS-FGT.torrent (89.44 KB, 下载次数: 38)

回复

使用道具 举报

小黑屋|百度云资源论坛 |网站地图

本网站所有资源来自网络,如无意中侵犯了您的权益,请发邮件至 [email protected],立即清除相关链接

GMT+8, 2019-5-26 05:58 , Processed in 0.058600 second(s), 23 queries .

Powered by Discuz! X3.2

© 2001-2013 Comsenz Inc.

快速回复 返回顶部 返回列表