百度云资源论坛

 找回密码
 立即注册
搜索

[奇幻片] [BT下载]时空急转弯 Les.Visiteurs.1993.FRENCH.1080p.BluRay.x264.DTS-FGT 12.05GB . ...

[复制链接]
电影首发 发表于 2016-3-20 10:19:00 | 显示全部楼层 |阅读模式

译  名 时空急转弯/失惊无神外来人/时空造访者/十二世纪来客/来访者
片  名 Les visiteurs
年  代 1993
国  家 法国
类  别 奇幻/喜剧
语  言 法语/英语
上映日期 1993-01-27
片  长 107 分钟
导  演 让-马力·普瓦雷 Jean-Marie Poiré
主  演 让·雷诺 Jean Reno
      克里斯汀·克拉维尔 Christian Clavier
      瓦莱丽·勒梅西埃 Valérie Lemercier
      玛丽-安妮·查泽尔 Marie-Anne Chazel


简  介


  故事发生在十二世纪的法国,一种神奇且危险的时光穿梭魔力药水令戈德弗鲁瓦骑士(让·雷诺 Jean Reno 饰)和其仆人拉弗里普伊(克里斯汀·克拉维尔 Christian Clavier 饰)一同穿越到了二十一世纪的美国芝加哥。翻天覆地的变化和车水马龙的大街让这两个“老古董”既好奇又恐惧,就在此时,一位名为茱莉亚(瓦莱丽·勒梅西埃 Pierre Aussedat 饰)的美丽女子出现在了两人的面前。巧合的是,这位茱莉亚不是别人,竟然就是戈德弗鲁瓦骑士的后代。
  很快,戈德弗鲁瓦骑士和拉弗里普伊便明白了他们的处境,与此同时,一个严重的问题浮出了水面——如果他们无法返回属于自己的时代,那也就意味着,他们的后代,也就是茱莉亚也将不复存在。十万火急之下,戈德弗鲁瓦骑士一行人开始寻找起了回到过去的方法。


Video
ID                                       : 1
Format                                   : AVC
Format/Info                              : Advanced Video Codec
Format profile                           : [email protected]
Format settings, CABAC                   : Yes
Format settings, ReFrames                : 5 frames
Codec ID                                 : V_MPEG4/ISO/AVC
Duration                                 : 1h 46mn
Bit rate                                 : 14.3 Mbps
Width                                    : 1 914 pixels
Height                                   : 814 pixels
Display aspect ratio                     : 2.35:1
Frame rate mode                          : Constant
Frame rate                               : 24.000 fps
Color space                              : YUV
Chroma subsampling                       : 4:2:0
Bit depth                                : 8 bits
Scan type                                : Progressive
Bits/(Pixel*Frame)                       : 0.383
Stream size                              : 10.7 GiB (89%)
Writing library                          : x264 core 146 r0+2586 e393126 t_mod_Custom [[email protected] X86_64]
Encoding settings                        : cabac=1 / ref=5 / deblock=1:-3:-3 / analyse=0x3:0x133 / me=umh / subme=11 / psy=1 / fade_compensate=0.00 / psy_rd=1.05:0.05 / mixed_ref=1 / me_range=24 / chroma_me=1 / trellis=2 / 8x8dct=1 / cqm=0 / deadzone=21,11 / fast_pskip=0 / chroma_qp_offset=-3 / threads=6 / lookahead_threads=1 / sliced_threads=0 / nr=0 / decimate=1 / interlaced=0 / bluray_compat=0 / constrained_intra=0 / fgo=0 / bframes=8 / b_pyramid=2 / b_adapt=2 / b_bias=0 / direct=3 / weightb=1 / open_gop=0 / weightp=2 / keyint=250 / keyint_min=24 / scenecut=40 / intra_refresh=0 / rc_lookahead=60 / rc=crf / mbtree=0 / crf=18.0000 / qcomp=0.60 / qpmin=0:0:0 / qpmax=69:69:69 / qpstep=4 / vbv_maxrate=62500 / vbv_bufsize=78125 / crf_max=0.0 / nal_hrd=none / filler=0 / ip_ratio=1.40 / pb_ratio=1.30 / aq=1:0.80 / aq-sensitivity=10.00 / aq-factor=1.00:1.00:1.00 / aq2=0 / aq3=0
Language                                 : English
Default                                  : Yes
Forced                                   : No
Color range                              : Limited
Color primaries                          : BT.709
Transfer characteristics                 : BT.709
Matrix coefficients                      : BT.709

Audio
ID                                       : 2
Format                                   : DTS
Format/Info                              : Digital Theater Systems
Mode                                     : 16
Format settings, Endianness              : Big
Codec ID                                 : A_DTS
Duration                                 : 1h 46mn
Bit rate mode                            : Constant
Bit rate                                 : 1 509 Kbps
Channel(s)                               : 6 channels
Channel positions                        : Front: L C R, Side: L R, LFE
Sampling rate                            : 48.0 KHz
Frame rate                               : 93.750 fps (512 spf)
Bit depth                                : 24 bits
Compression mode                         : Lossy
Stream size                              : 1.13 GiB (9%)
Language                                 : French
Default                                  : Yes
Forced                                   : No

Text #1
ID                                       : 3
Format                                   : UTF-8
Codec ID                                 : S_TEXT/UTF8
Codec ID/Info                            : UTF-8 Plain Text
Language                                 : English
Default                                  : Yes
Forced                                   : Yes

Text #2
ID                                       : 4
Format                                   : UTF-8
Codec ID                                 : S_TEXT/UTF8
Codec ID/Info                            : UTF-8 Plain Text
Language                                 : French
Default                                  : No
Forced                                   : No

Menu
00:00:00.000                             : en:00:00:00.000
00:04:59.125                             : en:00:04:59.125
00:06:17.415                             : en:00:06:17.415
00:10:07.125                             : en:00:10:07.125
00:14:34.541                             : en:00:14:34.541
00:18:20.915                             : en:00:18:20.915
00:22:16.875                             : en:00:22:16.875
00:25:13.333                             : en:00:25:13.333
00:29:37.790                             : en:00:29:37.790
00:33:15.790                             : en:00:33:15.790
00:35:24.666                             : en:00:35:24.666
00:38:21.041                             : en:00:38:21.041
00:42:04.041                             : en:00:42:04.041
00:53:32.833                             : en:00:53:32.833
00:59:41.541                             : en:00:59:41.541
01:02:28.000                             : en:01:02:28.000
01:10:19.416                             : en:01:10:19.416
01:16:14.166                             : en:01:16:14.166
01:21:41.957                             : en:01:21:41.957
01:25:12.666                             : en:01:25:12.666
01:29:47.541                             : en:01:29:47.541
01:31:47.582                             : en:01:31:47.582
01:35:07.707                             : en:01:35:07.707
01:40:34.457                             : en:01:40:34.457
01:43:21.125                             : en:01:43:21.125






                                                                                                                                                                                                       

                                                                                                                       
                                                                                                                                                                                                                                                        Les.Visiteurs.1993.FRENCH.1080p.BluRay.x264.DTS-FGT.torrent (60.88 KB, 下载次数: 47)

回复

使用道具 举报

小黑屋|磁力链接吧 |网站地图

本网站所有资源来自网络,如无意中侵犯了您的权益,请发邮件至 [email protected],立即清除相关链接

GMT+8, 2019-7-16 11:00 , Processed in 0.076114 second(s), 23 queries .

Powered by Discuz! X3.2

© 2001-2013 Comsenz Inc.

快速回复 返回顶部 返回列表