百度云资源论坛

 找回密码
 立即注册
搜索

[恐怖片] [BT下载]处女杀手 Cherry.Falls.2000.1080p.BluRay.x264.DTS-DiVULGED 7.62GB

[复制链接]
电影首发 发表于 2016-3-20 10:18:00 | 显示全部楼层 |阅读模式

译  名 处女杀手
片  名 Cherry Falls
年  代 2000
国  家 美国
类  别 恐怖/悬疑/惊悚
语  言 英语
上映日期 2000-08-25
片  长 92 分钟
导  演 Geoffrey Wright
主  演 Brittany Murphy
      Jay Mohr
      Michael Biehn
      Jesse Bradford


简  介


  樱桃镇内连续三个少女被杀,死状恐怖。经过调查后发现这些女孩的共同点是她们全是处女。镇内少男少女人人自危,决定举行“失身派对",务求交出贞操,免招杀身之祸。舞会中的男女几陷疯狂,男的欲念高涨、女的只求失身,而凶手亦趁此机会猎食,目标是仍未愿交出处女身的镇长女儿祖迪……


Video
ID                                       : 1
Format                                   : AVC
Format/Info                              : Advanced Video Codec
Format profile                           : [email protected]
Format settings, CABAC                   : Yes
Format settings, ReFrames                : 4 frames
Codec ID                                 : V_MPEG4/ISO/AVC
Duration                                 : 1h 31mn
Bit rate                                 : 10.5 Mbps
Width                                    : 1 920 pixels
Height                                   : 1 040 pixels
Display aspect ratio                     : 1.85:1
Frame rate mode                          : Constant
Frame rate                               : 23.976 (24000/1001) fps
Color space                              : YUV
Chroma subsampling                       : 4:2:0
Bit depth                                : 8 bits
Scan type                                : Progressive
Bits/(Pixel*Frame)                       : 0.219
Stream size                              : 6.50 GiB (85%)
Writing library                          : x264 core 142 r2479 dd79a61
Encoding settings                        : cabac=1 / ref=3 / deblock=1:-2:-2 / analyse=0x3:0x113 / me=hex / subme=7 / psy=1 / psy_rd=1.00:0.25 / mixed_ref=1 / me_range=16 / chroma_me=1 / trellis=1 / 8x8dct=1 / cqm=0 / deadzone=6,6 / fast_pskip=1 / chroma_qp_offset=-4 / threads=12 / lookahead_threads=2 / sliced_threads=0 / nr=0 / decimate=0 / interlaced=0 / bluray_compat=0 / constrained_intra=0 / bframes=3 / b_pyramid=2 / b_adapt=1 / b_bias=0 / direct=1 / weightb=1 / open_gop=0 / weightp=2 / keyint=240 / keyint_min=24 / scenecut=40 / intra_refresh=0 / rc_lookahead=40 / rc=abr / mbtree=1 / bitrate=10500 / ratetol=1.0 / qcomp=0.80 / qpmin=0 / qpmax=69 / qpstep=4 / vbv_maxrate=62500 / vbv_bufsize=78125 / nal_hrd=none / filler=0 / ip_ratio=1.10 / aq=1:0.50
Default                                  : Yes
Forced                                   : No
Color range                              : Limited
Color primaries                          : BT.709
Transfer characteristics                 : BT.709
Matrix coefficients                      : BT.709

Audio
ID                                       : 2
Format                                   : DTS
Format/Info                              : Digital Theater Systems
Mode                                     : 16
Format settings, Endianness              : Big
Codec ID                                 : A_DTS
Duration                                 : 1h 31mn
Bit rate mode                            : Constant
Bit rate                                 : 1 509 Kbps
Channel(s)                               : 6 channels
Channel positions                        : Front: L C R, Side: L R, LFE
Sampling rate                            : 48.0 KHz
Frame rate                               : 93.750 fps (512 spf)
Bit depth                                : 24 bits
Compression mode                         : Lossy
Stream size                              : 987 MiB (13%)
Language                                 : English
Default                                  : Yes
Forced                                   : No

Text
ID                                       : 3
Format                                   : PGS
Muxing mode                              : zlib
Codec ID                                 : S_HDMV/PGS
Codec ID/Info                            : Picture based subtitle format used on BDs/HD-DVDs
Language                                 : English
Default                                  : No
Forced                                   : No

Menu
00:00:00.000                             : :Chapter 1
00:07:44.380                             : :Chapter 2
00:16:02.336                             : :Chapter 3
00:22:22.966                             : :Chapter 4
00:29:57.087                             : :Chapter 5
00:37:21.823                             : :Chapter 6
00:42:32.258                             : :Chapter 7
00:52:28.645                             : :Chapter 8
00:59:18.888                             : :Chapter 9
01:08:08.751                             : :Chapter 10
01:14:40.309                             : :Chapter 11
01:23:30.839                             : :Chapter 12






                                                                                                                                                                                                       

                                                                                                                       
                                                                                                                                                                                                                                                        Cherry.Falls.2000.1080p.BluRay.x264.DTS-DiVULGED.torrent (76.77 KB, 下载次数: 38)

回复

使用道具 举报

小黑屋|百度云资源论坛 |网站地图

本网站所有资源来自网络,如无意中侵犯了您的权益,请发邮件至 [email protected],立即清除相关链接

GMT+8, 2019-5-20 03:32 , Processed in 0.057851 second(s), 23 queries .

Powered by Discuz! X3.2

© 2001-2013 Comsenz Inc.

快速回复 返回顶部 返回列表