磁力链接吧

 找回密码
 立即注册
搜索

[动作片] [BT下载]谎言与错觉 Lies.and.Illusions.2009.1080p.BluRay.x264.DTS-FGT 8.64GB ... ...

[复制链接]
电影首发 发表于 2016-3-19 09:10:00 | 显示全部楼层 |阅读模式

译  名 谎言与错觉
片  名 Lies & Illusions
年  代 2009
国  家 美国
类  别 动作/喜剧/惊悚
语  言 英语
上映日期 2009-03-01
导  演 Tibor Takács
主  演 Christian Slater
      Cuba Gooding Jr.
      Sarah Ann Schultz
      Christa Campbell
      Robert Giardina
      Al Madrigal


简  介


  一位来自纽约的编辑对一本暴力小说的作者着迷,她私下里调查了他的过去
  一个作家深爱的妻子被莫名其妙地杀害。2年后他被一个奇怪的美女缠上,后来妻子突然复活出现。原来作家的妻子是个江洋大盗,因为偷了走私贩的钻石而被追杀,奇怪的美女是联邦调查局的特工。后来两个美女联手,结局是坏人死了,美女得到了她想要的走私贩的客户名单,作家和妻子又和好了,和钻石一起过上了幸福的生活。



Video
ID                                       : 1
Format                                   : AVC
Format/Info                              : Advanced Video Codec
Format profile                           : [email protected]
Format settings, CABAC                   : Yes
Format settings, ReFrames                : 4 frames
Codec ID                                 : V_MPEG4/ISO/AVC
Duration                                 : 1h 32mn
Bit rate                                 : 11.6 Mbps
Width                                    : 1 920 pixels
Height                                   : 1 080 pixels
Display aspect ratio                     : 16:9
Frame rate mode                          : Constant
Frame rate                               : 23.976 fps
Color space                              : YUV
Chroma subsampling                       : 4:2:0
Bit depth                                : 8 bits
Scan type                                : Progressive
Bits/(Pixel*Frame)                       : 0.233
Stream size                              : 7.49 GiB (87%)
Writing library                          : x264 core 78 r1310 ec46ace
Encoding settings                        : cabac=1 / ref=4 / deblock=1:0:0 / analyse=0x3:0x133 / me=umh / subme=7 / psy=1 / psy_rd=1.0:0.0 / mixed_ref=1 / me_range=16 / chroma_me=1 / trellis=1 / 8x8dct=1 / cqm=0 / deadzone=21,11 / chroma_qp_offset=-2 / threads=6 / nr=0 / decimate=1 / mbaff=0 / constrained_intra=0 / bframes=3 / b_pyramid=0 / b_adapt=1 / b_bias=0 / direct=1 / wpredb=1 / keyint=250 / keyint_min=25 / scenecut=40 / rc_lookahead=40 / rc=crf / mbtree=1 / crf=20.0 / qcomp=0.60 / qpmin=10 / qpmax=51 / qpstep=4 / ip_ratio=1.40 / aq=1:1.00
Language                                 : English
Default                                  : Yes
Forced                                   : No

Audio
ID                                       : 2
Format                                   : DTS
Format/Info                              : Digital Theater Systems
Mode                                     : 16
Format settings, Endianness              : Big
Codec ID                                 : A_DTS
Duration                                 : 1h 32mn
Bit rate mode                            : Constant
Bit rate                                 : 1 509 Kbps
Channel(s)                               : 6 channels
Channel positions                        : Front: L C R, Side: L R, LFE
Sampling rate                            : 48.0 KHz
Frame rate                               : 93.750 fps (512 spf)
Bit depth                                : 16 bits
Compression mode                         : Lossy
Stream size                              : 1 000 MiB (11%)
Language                                 : English
Default                                  : No
Forced                                   : No





                                                                                                                                                                                                       

                                                                                                                       
                                                                                                                                                                                                                                                        Lies.and.Illusions.2009.1080p.BluRay.x264.DTS-FGT.torrent (86.99 KB, 下载次数: 35)

回复

使用道具 举报

小黑屋|磁力链接吧 |网站地图

本网站所有资源来自网络,如无意中侵犯了您的权益,请发邮件至 [email protected],立即清除相关链接

GMT+8, 2019-11-17 14:53 , Processed in 0.071435 second(s), 23 queries .

Powered by Discuz! X3.2

© 2001-2013 Comsenz Inc.

快速回复 返回顶部 返回列表