磁力链接吧

 找回密码
 立即注册
搜索

[喜剧片] [BT下载]双层公寓/一不住二不休 Duplex.2003.1080p.BluRay.x264.DD5.1-FGT 6.9GB ... ...

[复制链接]
电影首发 发表于 2016-3-19 09:10:00 | 显示全部楼层 |阅读模式

译  名 双层公寓/一不住二不休/复式2人世界
片  名 Duplex
年  代 2003
国  家 美国/德国
类  别 喜剧
语  言 英语
上映日期 2003-09-26
片  长 89 分钟
导  演 丹尼·德维托 Danny DeVito
主  演 本·斯蒂勒 Ben Stiller
      德鲁·巴里摩尔 Drew Barrymore
      Eileen Essell
      哈维·费斯特恩 Harvey Fierstein
      贾斯汀·塞洛克斯 Justin Theroux


简  介


  阿历克斯(本·斯蒂勒 Ben Stiller饰)和南希(德鲁·巴里摩尔 Drew Barrymore饰)这对夫妻搬进了一桩双层公寓。这个公寓虽然是装修古旧了些,却是一个美妙的生活居所。唯一的糟糕事情是,公寓的二楼住着一个叫康奈利太太(艾玲·伊丝儿Eileen Essel 饰)。这个年近一百岁的老人,竟然给这对夫妻带来了灾难性的麻烦。
  康奈利太太总是在不合时宜的时间干扰阿历克斯和南妮的生活:在阿历克斯专心写作的时候支使他帮忙处理繁杂的家务活,在夫妻生活正到酣甜处时在他们窗边露出一个可怕的身影,用强大的电视音量来干扰他们的睡眠。更为无可奈何的是,康奈利太太毁了这对夫妻的事业,阿历克斯的书稿被她毁于一旦,南希也因为她的不间断骚扰而丢掉饭碗。夫妻两人对这个可恶的康奈利太太已经忍无可忍,他们决定,用一个神不知鬼不觉的阴谋,狠狠处置把这个无法无天的老太太,还有她那只专做帮凶的鹦鹉……


Video
ID                                       : 1
Format                                   : AVC
Format/Info                              : Advanced Video Codec
Format profile                           : [email protected]
Format settings, CABAC                   : Yes
Format settings, ReFrames                : 4 frames
Codec ID                                 : V_MPEG4/ISO/AVC
Duration                                 : 1h 29mn
Bit rate mode                            : Variable
Bit rate                                 : 10.8 Mbps
Maximum bit rate                         : 25.0 Mbps
Width                                    : 1 920 pixels
Height                                   : 1 080 pixels
Display aspect ratio                     : 16:9
Frame rate mode                          : Constant
Frame rate                               : 23.976 (24000/1001) fps
Color space                              : YUV
Chroma subsampling                       : 4:2:0
Bit depth                                : 8 bits
Scan type                                : Progressive
Bits/(Pixel*Frame)                       : 0.216
Stream size                              : 6.56 GiB (94%)
Writing library                          : x264 core 115 r1995 c1e60b9
Encoding settings                        : cabac=1 / ref=4 / deblock=1:0:0 / analyse=0x3:0x133 / me=umh / subme=7 / psy=1 / psy_rd=1.00:0.00 / mixed_ref=1 / me_range=16 / chroma_me=1 / trellis=1 / 8x8dct=1 / cqm=0 / deadzone=21,11 / fast_pskip=1 / chroma_qp_offset=-2 / threads=6 / sliced_threads=0 / nr=0 / decimate=1 / interlaced=0 / bluray_compat=0 / constrained_intra=0 / bframes=4 / b_pyramid=0 / b_adapt=1 / b_bias=0 / direct=1 / weightb=1 / open_gop=0 / weightp=2 / keyint=240 / keyint_min=24 / scenecut=40 / intra_refresh=0 / rc_lookahead=40 / rc=2pass / mbtree=1 / bitrate=10759 / ratetol=1.0 / qcomp=0.60 / qpmin=0 / qpmax=69 / qpstep=4 / cplxblur=20.0 / qblur=0.5 / vbv_maxrate=25000 / vbv_bufsize=25000 / nal_hrd=vbr / ip_ratio=1.40 / aq=1:1.00
Language                                 : English
Default                                  : Yes
Forced                                   : No

Audio
ID                                       : 2
Format                                   : AC-3
Format/Info                              : Audio Coding 3
Mode extension                           : CM (complete main)
Format settings, Endianness              : Big
Codec ID                                 : A_AC3
Duration                                 : 1h 29mn
Bit rate mode                            : Constant
Bit rate                                 : 448 Kbps
Channel(s)                               : 6 channels
Channel positions                        : Front: L C R, Side: L R, LFE
Sampling rate                            : 48.0 KHz
Frame rate                               : 31.250 fps (1536 spf)
Compression mode                         : Lossy
Stream size                              : 286 MiB (4%)
Language                                 : English
Default                                  : Yes
Forced                                   : No

Text
ID                                       : 3
Format                                   : UTF-8
Codec ID                                 : S_TEXT/UTF8
Codec ID/Info                            : UTF-8 Plain Text
Language                                 : English
Default                                  : No
Forced                                   : No





                                                                                                                                                                                                       

                                                                                                                       
                                                                                                                                                                                                                                                        Duplex.2003.1080p.BluRay.x264.DD5.1-FGT.torrent (70.34 KB, 下载次数: 43)

回复

使用道具 举报

小黑屋|磁力链接吧 |网站地图

本网站所有资源来自网络,如无意中侵犯了您的权益,请发邮件至 [email protected],立即清除相关链接

GMT+8, 2019-11-22 05:01 , Processed in 0.079568 second(s), 23 queries .

Powered by Discuz! X3.2

© 2001-2013 Comsenz Inc.

快速回复 返回顶部 返回列表