磁力链接吧

 找回密码
 立即注册
搜索

[BT下载]终点站/终点 Terminus.2015.1080p.BluRay.x264.DTS-RARBG 8.01GB

[复制链接]
电影首发 发表于 2016-3-19 09:10:00 | 显示全部楼层 |阅读模式

译  名 终点站/终点
片  名 Terminus
年  代 2015
国  家 澳大利亚
类  别 科幻
语  言 英语
上映日期 2016-1-22(美国)
片  长 94分钟
导  演 Marc Furmie
主  演 翟·寇特瑞 Jai Koutrae
      肯德拉·阿普尔顿 Kendra Appleton
      托德·拉桑斯 Todd Lasance
      布伦·福斯特 Bren Foster
      史蒂芬·李·马奎德 Steve Le Marquand
      亨利·尼克松 Henry Nixon
      布伦丹·克莱金 Brendan Clearkin
      文森特·阿德里安 Vincent Andriano
      威廉·埃蒙斯 William Emmons
      克里斯托弗·斯特勒瑞 Christopher Stollery


简  介


  在一次差点丧命的车祸之后,大卫·张伯伦有了一个空前的发现。这一发现不仅将决定他的家人的命运,也将决定整个人类的命运。



  • Video
  • ID                                       : 1
  • Format                                   : AVC
  • Format/Info                              : Advanced Video Codec
  • Format profile                           : [email protected]
  • Format settings, CABAC                   : Yes
  • Format settings, ReFrames                : 4 frames
  • Codec ID                                 : V_MPEG4/ISO/AVC
  • Duration                                 : 1h 33mn
  • Bit rate                                 : 10.5 Mbps
  • Nominal bit rate                         : 11.5 Mbps
  • Width                                    : 1 920 pixels
  • Height                                   : 800 pixels
  • Display aspect ratio                     : 2.40:1
  • Frame rate mode                          : Constant
  • Frame rate                               : 23.976 (24000/1001) fps
  • Color space                              : YUV
  • Chroma subsampling                       : 4:2:0
  • Bit depth                                : 8 bits
  • Scan type                                : Progressive
  • Bits/(Pixel*Frame)                       : 0.284
  • Stream size                              : 6.86 GiB (86%)
  • Title                                    : Terminus.2015.1080p.BluRay.x264.DTS-RARBG
  • Writing library                          : x264 core 148 r2638 7599210
  • Encoding settings                        : cabac=1 / ref=4 / deblock=1:-2:-2 / analyse=0x3:0x113 / me=umh / subme=7 / psy=1 / psy_rd=1.00:0.15 / mixed_ref=1 / me_range=16 / chroma_me=1 / trellis=1 / 8x8dct=1 / cqm=0 / deadzone=21,11 / fast_pskip=1 / chroma_qp_offset=-3 / threads=12 / lookahead_threads=3 / sliced_threads=0 / nr=0 / decimate=1 / interlaced=0 / bluray_compat=0 / constrained_intra=0 / bframes=3 / b_pyramid=2 / b_adapt=2 / b_bias=0 / direct=3 / weightb=1 / open_gop=0 / weightp=2 / keyint=250 / keyint_min=25 / scenecut=40 / intra_refresh=0 / rc_lookahead=50 / rc=abr / mbtree=1 / bitrate=11500 / ratetol=1.0 / qcomp=0.60 / qpmin=0 / qpmax=69 / qpstep=4 / vbv_maxrate=31250 / vbv_bufsize=31250 / nal_hrd=none / filler=0 / ip_ratio=1.40 / aq=1:1.00
  • Language                                 : English
  • Default                                  : Yes
  • Forced                                   : No


  • Audio
  • ID                                       : 2
  • Format                                   : DTS
  • Format/Info                              : Digital Theater Systems
  • Mode                                     : 16
  • Format settings, Endianness              : Big
  • Codec ID                                 : A_DTS
  • Duration                                 : 1h 33mn
  • Bit rate mode                            : Constant
  • Bit rate                                 : 1 509 Kbps
  • Channel(s)                               : 6 channels
  • Channel positions                        : Front: L C R, Side: L R, LFE
  • Sampling rate                            : 48.0 KHz
  • Frame rate                               : 93.750 fps (512 spf)
  • Bit depth                                : 16 bits
  • Compression mode                         : Lossy
  • Stream size                              : 1 013 MiB (12%)
  • Title                                    : Terminus.2015.1080p.BluRay.x264.DTS-RARBG
  • Language                                 : English
  • Default                                  : Yes
  • Forced                                   : No


  • Menu
  • 00:00:00.000                             : en:Chapter 1
  • 00:05:52.894                             : en:Chapter 2
  • 00:13:18.964                             : en:Chapter 3
  • 00:18:23.769                             : en:Chapter 4
  • 00:28:36.005                             : en:Chapter 5
  • 00:35:36.634                             : en:Chapter 6
  • 00:44:05.017                             : en:Chapter 7
  • 00:53:51.019                             : en:Chapter 8
  • 01:03:04.447                             : en:Chapter 9
  • 01:11:09.890                             : en:Chapter 10
  • 01:19:31.683                             : en:Chapter 11
  • 01:27:02.842                             : en:Chapter 12






                                                                                                                                                                                                       

                                                                                                                       
                                                                                                                                                                                                                                                        Terminus.2015.1080p.BluRay.x264.DTS-RARBG.torrent (80.7 KB, 下载次数: 36)

回复

使用道具 举报

小黑屋|磁力链接吧 |网站地图

本网站所有资源来自网络,如无意中侵犯了您的权益,请发邮件至 [email protected],立即清除相关链接

GMT+8, 2019-11-20 04:32 , Processed in 0.075348 second(s), 23 queries .

Powered by Discuz! X3.2

© 2001-2013 Comsenz Inc.

快速回复 返回顶部 返回列表