磁力链接吧

 找回密码
 立即注册
搜索

[动作片] [BT下载]魔鬼游乐场 Devil.Playground.2010.1080p.BluRay.x264.DTS-FGT 8.6GB

[复制链接]
电影首发 发表于 2016-3-18 08:48:00 | 显示全部楼层 |阅读模式

译  名 魔鬼游乐场
片  名 Devil's Playground
年  代 2010
国  家 英国
类  别 动作/恐怖
语  言 英语
上映日期 2010-10-11
片  长 93分钟
导  演 Mark McQueen
主  演 Danny Dyer
      Shane Taylor
      Craig Fairbrass
      Daniela Denby-Ashe
      Bart Ruspoli
      Lisa McAllister


简  介


  为了应对现代人肉体和精神上日益严重的压力与紧张,英国制药巨头N-gen公司开发出名代号为RAK295的机能提升补充剂。在投放市场前,N-gen找到3万个志愿者进行临床实验。两个月后,灾难如暴风雨般降临。RAK295引发极为严重的副作用,3万名志愿者几乎全部遭受痛苦的折磨,只有名为安吉拉·米尔斯(玛安娜·本灵 MyAnna Buring 饰)的女子至今杳无音讯。
  科尔(克莱格·菲尔布莱斯 Craig Fairbrass 饰)受雇寻找安吉拉,以揭开RAK295失败的原因。与此同时,志愿者的身体相继发生变异,继而化身成为嗜血如命、毫无人性的恐怖丧尸。被他们袭击后的人也相继变为丧尸,人类的命运危在旦夕。寻找安吉拉的使命由此变得更为重要……


Video
ID                                       : 1
Format                                   : AVC
Format/Info                              : Advanced Video Codec
Format profile                           : [email protected]
Format settings, CABAC                   : Yes
Format settings, ReFrames                : 4 frames
Codec ID                                 : V_MPEG4/ISO/AVC
Duration                                 : 1h 36mn
Bit rate                                 : 10.9 Mbps
Nominal bit rate                         : 11.5 Mbps
Width                                    : 1 920 pixels
Height                                   : 800 pixels
Display aspect ratio                     : 2.40:1
Frame rate mode                          : Constant
Frame rate                               : 24.000 fps
Color space                              : YUV
Chroma subsampling                       : 4:2:0
Bit depth                                : 8 bits
Scan type                                : Progressive
Bits/(Pixel*Frame)                       : 0.297
Stream size                              : 7.41 GiB (86%)
Writing library                          : x264 core 148 r2638 7599210
Encoding settings                        : cabac=1 / ref=4 / deblock=1:-2:-2 / analyse=0x3:0x113 / me=umh / subme=7 / psy=1 / psy_rd=1.00:0.15 / mixed_ref=1 / me_range=16 / chroma_me=1 / trellis=1 / 8x8dct=1 / cqm=0 / deadzone=21,11 / fast_pskip=1 / chroma_qp_offset=-3 / threads=12 / lookahead_threads=3 / sliced_threads=0 / nr=0 / decimate=1 / interlaced=0 / bluray_compat=0 / constrained_intra=0 / bframes=3 / b_pyramid=2 / b_adapt=2 / b_bias=0 / direct=3 / weightb=1 / open_gop=0 / weightp=2 / keyint=250 / keyint_min=25 / scenecut=40 / intra_refresh=0 / rc_lookahead=50 / rc=abr / mbtree=1 / bitrate=11500 / ratetol=1.0 / qcomp=0.60 / qpmin=0 / qpmax=69 / qpstep=4 / vbv_maxrate=31250 / vbv_bufsize=31250 / nal_hrd=none / filler=0 / ip_ratio=1.40 / aq=1:1.00
Language                                 : English
Default                                  : Yes
Forced                                   : No

Audio
ID                                       : 2
Format                                   : DTS
Format/Info                              : Digital Theater Systems
Mode                                     : 16
Format settings, Endianness              : Big
Codec ID                                 : A_DTS
Duration                                 : 1h 36mn
Bit rate mode                            : Constant
Bit rate                                 : 1 509 Kbps
Channel(s)                               : 6 channels
Channel positions                        : Front: L C R, Side: L R, LFE
Sampling rate                            : 48.0 KHz
Frame rate                               : 93.750 fps (512 spf)
Bit depth                                : 24 bits
Compression mode                         : Lossy
Stream size                              : 1.02 GiB (12%)
Language                                 : English
Default                                  : Yes
Forced                                   : No

Menu
00:00:00.000                             : en:Chapter 01
00:09:14.500                             : en:Chapter 02
00:18:05.083                             : en:Chapter 03
00:27:57.791                             : en:Chapter 04
00:34:50.791                             : en:Chapter 05
00:42:35.541                             : en:Chapter 06
00:51:55.833                             : en:Chapter 07
01:02:32.708                             : en:Chapter 08
01:10:13.333                             : en:Chapter 09
01:17:38.000                             : en:Chapter 10
01:23:30.208                             : en:Chapter 11
01:31:54.791                             : en:Chapter 12





                                                                                                                                                                                                       

                                                                                                                       
                                                                                                                                                                                                                                                        Devil.Playground.2010.1080p.BluRay.x264.DTS-FGT.torrent (86.61 KB, 下载次数: 38)

回复

使用道具 举报

小黑屋|磁力链接吧 |网站地图

本网站所有资源来自网络,如无意中侵犯了您的权益,请发邮件至 [email protected],立即清除相关链接

GMT+8, 2020-9-26 12:43 , Processed in 0.128612 second(s), 23 queries .

Powered by Discuz! X3.2

© 2001-2013 Comsenz Inc.

快速回复 返回顶部 返回列表