磁力链接吧

 找回密码
 立即注册
搜索

[剧情片] [BT下载]地下拳击场/格斗小子 Fighting.2009.UNRATED.1080p.BluRay.x264.DTS-FGT 12.3 ...

[复制链接]
电影首发 发表于 2016-3-18 08:47:00 | 显示全部楼层 |阅读模式

译  名 地下拳击场/格斗小子(台)
片  名 Fighting
年  代 2009
国  家 美国
类  别 动作/剧情/运动
语  言 英语
上映日期 2009-04-24
导  演 蒂托·蒙蒂尔 Dito Montiel
主  演 查宁·塔图姆 Channing Tatum
      泰伦斯·霍华德 Terrence Howard
      布莱恩·J·怀特 Brian J. White
      路易斯·古兹曼 Luis Guzmán
      Angelic Zambrana
      祖蕾·亨奥 Zulay Henao
      Michael Rivera
      Flaco Navaja


简  介


  肖恩(Channing Tatum 饰)本是一个在街头兜售盗版的青年,然而一次街头争执,让他结识了两个改变自己命运轨迹的人。票贩哈维(Terrence Howard 饰)同时也做着地下拳手经纪人的行当,他看中了肖恩的敏捷身手,引领他进入收入不菲的地下拳击圈。单身母亲祖莱因一本盗版书与肖恩结缘,两人的感情稳步发展,但肖恩却并不知道,祖莱与哈维之间有千丝万缕的联系。
  肖恩的地下拳手之路并不平坦,除了诸多劲敌需要应对,昔日拳击队的队友埃文的出现再一次揭开了肖恩不愿示人的灰色往事,原来肖恩与教练父亲的矛盾迫使他中断了拳手之路。此时与肖恩同居一室的哈维决意暂时按下两人的争执,安排了与埃文的拳赛以使两人找到新的方向……


获奖情况


  第11届美国青少年选择奖  (2009)
  最佳剧情片男演员(提名) 查宁·塔图姆


Video
ID                                       : 1
Format                                   : AVC
Format/Info                              : Advanced Video Codec
Format profile                           : [email protected]
Format settings, CABAC                   : Yes
Format settings, ReFrames                : 4 frames
Codec ID                                 : V_MPEG4/ISO/AVC
Duration                                 : 1h 47mn
Bit rate                                 : 14.9 Mbps
Width                                    : 1 920 pixels
Height                                   : 1 040 pixels
Display aspect ratio                     : 1.85:1
Frame rate mode                          : Constant
Frame rate                               : 23.976 fps
Color space                              : YUV
Chroma subsampling                       : 4:2:0
Bit depth                                : 8 bits
Scan type                                : Progressive
Bits/(Pixel*Frame)                       : 0.311
Stream size                              : 10.9 GiB (89%)
Writing library                          : x264 core 68 r1183M f21daff
Encoding settings                        : cabac=1 / ref=4 / deblock=1:-3:-3 / analyse=0x3:0x113 / me=umh / subme=9 / psy_rd=1.0:0.0 / mixed_ref=1 / me_range=32 / chroma_me=1 / trellis=2 / 8x8dct=1 / cqm=0 / deadzone=21,11 / chroma_qp_offset=-2 / threads=6 / nr=0 / decimate=1 / mbaff=0 / bframes=5 / b_pyramid=1 / b_adapt=2 / b_bias=0 / direct=3 / wpredb=1 / keyint=250 / keyint_min=25 / scenecut=40 / rc=2pass / bitrate=14893 / ratetol=1.0 / qcomp=0.60 / qpmin=10 / qpmax=51 / qpstep=4 / cplxblur=20.0 / qblur=0.5 / ip_ratio=1.40 / pb_ratio=1.30 / aq=1:0.80
Language                                 : English
Default                                  : Yes
Forced                                   : No

Audio
ID                                       : 2
Format                                   : DTS
Format/Info                              : Digital Theater Systems
Mode                                     : 16
Format settings, Endianness              : Big
Codec ID                                 : A_DTS
Duration                                 : 1h 47mn
Bit rate mode                            : Constant
Bit rate                                 : 1 509 Kbps
Channel(s)                               : 6 channels
Channel positions                        : Front: L C R, Side: L R, LFE
Sampling rate                            : 48.0 KHz
Frame rate                               : 93.750 fps (512 spf)
Bit depth                                : 24 bits
Compression mode                         : Lossy
Stream size                              : 1.13 GiB (9%)
Language                                 : English
Default                                  : Yes
Forced                                   : No








                                                                                                                                                                                                       

                                                                                                                       
                                                                                                                                                                                                                                                        Fighting.2009.UNRATED.1080p.BluRay.x264.DTS-FGT.torrent (62.08 KB, 下载次数: 46)

回复

使用道具 举报

小黑屋|磁力链接吧 |网站地图

本网站所有资源来自网络,如无意中侵犯了您的权益,请发邮件至 [email protected],立即清除相关链接

GMT+8, 2020-9-30 13:23 , Processed in 0.111585 second(s), 23 queries .

Powered by Discuz! X3.2

© 2001-2013 Comsenz Inc.

快速回复 返回顶部 返回列表