磁力链接吧

 找回密码
 立即注册
搜索

[喜剧片] [BT下载]油腔滑调/阿叔有难 Stir.Crazy.1980.1080p.BluRay.x264.DD2.0-FGT 7.65GB ... ...

[复制链接]
电影首发 发表于 2016-3-18 08:47:00 | 显示全部楼层 |阅读模式

译  名 油腔滑调/阿叔有难
片  名 Stir Crazy
年  代 1980
国  家 美国
类  别 喜剧/犯罪
语  言 英语
片  长 111 分钟
导  演 Sidney Poitier
主  演 Gene Wilder
      Richard Pryor
      Georg Stanford Brown


简  介


  美国7、80年代最著名的一对黑白喜剧搭档金怀尔德和里查普赖尔合作的经典喜剧。黑人影星希德尼-波蒂埃担任导演,但从本片来看,其导演水平比张艺谋要强过不少。
  此片看点是金-怀德的表演,他是1980年代最受观众欣赏的美国喜剧演员之一;本片与他搭档的黑人演员理查-普莱尔也相当了得,两人此前合作过的《三上银色快车》相信大多数中国观众都十分熟悉,本片两人二度合作,化学作用更是了得,只可惜90年代两人的第三、四次合作都成绩平平。
  影片讲述两个小人物被错当成银行抢劫犯投入狱中,又通过一场监狱牛仔比赛成功逃脱的故事,依靠将人物置入本不属于他们的环境的手法来制造笑料,再加上层层推进的脱狱过程,具有相当的可看性。


Video
ID                                       : 1
Format                                   : AVC
Format/Info                              : Advanced Video Codec
Format profile                           : [email protected]
Format settings, CABAC                   : Yes
Format settings, ReFrames                : 4 frames
Codec ID                                 : V_MPEG4/ISO/AVC
Duration                                 : 1h 51mn
Bit rate                                 : 9 223 Kbps
Width                                    : 1 920 pixels
Height                                   : 1 040 pixels
Display aspect ratio                     : 1.85:1
Frame rate mode                          : Constant
Frame rate                               : 23.976 (24000/1001) fps
Color space                              : YUV
Chroma subsampling                       : 4:2:0
Bit depth                                : 8 bits
Scan type                                : Progressive
Bits/(Pixel*Frame)                       : 0.193
Stream size                              : 7.00 GiB (92%)
Writing library                          : x264 core 122 r2184 5c85e0a
Encoding settings                        : cabac=1 / ref=4 / deblock=1:0:0 / analyse=0x3:0x113 / me=umh / subme=8 / psy=1 / psy_rd=1.00:0.00 / mixed_ref=1 / me_range=16 / chroma_me=1 / trellis=1 / 8x8dct=1 / cqm=0 / deadzone=21,11 / fast_pskip=1 / chroma_qp_offset=-2 / threads=12 / sliced_threads=0 / nr=0 / decimate=1 / interlaced=0 / bluray_compat=0 / constrained_intra=0 / bframes=3 / b_pyramid=2 / b_adapt=2 / b_bias=0 / direct=3 / weightb=1 / open_gop=0 / weightp=2 / keyint=240 / keyint_min=24 / scenecut=40 / intra_refresh=0 / rc_lookahead=50 / rc=2pass / mbtree=1 / bitrate=9223 / ratetol=1.0 / qcomp=0.60 / qpmin=0 / qpmax=69 / qpstep=4 / cplxblur=20.0 / qblur=0.5 / ip_ratio=1.40 / aq=1:1.00
Language                                 : English
Default                                  : Yes
Forced                                   : No

Audio
ID                                       : 2
Format                                   : AC-3
Format/Info                              : Audio Coding 3
Mode extension                           : CM (complete main)
Format settings, Endianness              : Big
Codec ID                                 : A_AC3
Duration                                 : 1h 51mn
Bit rate mode                            : Constant
Bit rate                                 : 640 Kbps
Channel(s)                               : 2 channels
Channel positions                        : Front: L R
Sampling rate                            : 48.0 KHz
Frame rate                               : 31.250 fps (1536 spf)
Compression mode                         : Lossy
Stream size                              : 508 MiB (6%)
Language                                 : English
Default                                  : No
Forced                                   : No

Text
ID                                       : 3
Format                                   : UTF-8
Codec ID                                 : S_TEXT/UTF8
Codec ID/Info                            : UTF-8 Plain Text
Language                                 : English
Default                                  : No
Forced                                   : No

Menu
00:00:00.000                             : en:00:00:00.000
00:06:47.115                             : en:00:06:47.115
00:15:25.049                             : en:00:15:25.049
00:22:08.494                             : en:00:22:08.494
00:29:05.118                             : en:00:29:05.118
00:35:35.925                             : en:00:35:35.925
00:43:06.292                             : en:00:43:06.292
00:49:06.026                             : en:00:49:06.026
00:56:23.755                             : en:00:56:23.755
01:01:15.881                             : en:01:01:15.881
01:07:27.043                             : en:01:07:27.043
01:17:31.397                             : en:01:17:31.397
01:22:19.518                             : en:01:22:19.518
01:26:59.840                             : en:01:26:59.840
01:37:54.035                             : en:01:37:54.035
01:42:40.571                             : en:01:42:40.571






                                                                                                                                                                                                       

                                                                                                                       
                                                                                                                                                                                                                                                        Stir.Crazy.1980.1080p.BluRay.x264.DD2.0-FGT.torrent (77.13 KB, 下载次数: 18)

回复

使用道具 举报

小黑屋|磁力链接吧 |网站地图

本网站所有资源来自网络,如无意中侵犯了您的权益,请发邮件至 [email protected],立即清除相关链接

GMT+8, 2021-1-19 06:47 , Processed in 0.156093 second(s), 23 queries .

Powered by Discuz! X3.2

© 2001-2013 Comsenz Inc.

快速回复 返回顶部 返回列表