磁力链接吧

 找回密码
 立即注册
搜索

[动作片] [BT下载]决战死亡线 Until.Death.2007.UNRATED.1080p.BluRay.x264.DTS-FGT 9.02GB ... ...

[复制链接]
电影首发 发表于 2016-3-18 08:49:00 | 显示全部楼层 |阅读模式

译  名 决战死亡线
片  名 Until Death
年  代 2007
国  家 英国/Bulgaria/德国/美国
类  别 动作/剧情/惊悚
语  言 英语
上映日期 2007-07-13
片  长 101 分钟/Germany: 107 分钟(director's cut)
导  演 Simon Fellows
主  演 尚格·云顿 Jean-Claude Van Damme
      Selina Giles
      Mark Dymond
      威廉·阿什 William Ash
      史蒂芬·洛德 Stephen Lord
      Gary Beadle
      C. Gerod Harris
      Wes Robinson
      斯蒂芬·瑞 Stephen Rea
      Buffy Davis
      Alana Maria
      菲奥娜·奥肖内西 Fiona O'Shaughnessy
      Adam Leese
      Rachel Grant
      Paul Williams


简  介


  警探安东尼的生活一团糟乱,自己海洛因上瘾,老婆还怀了别人的孩子。在奉命跟踪调查城市最大的毒贩时,两个同伴被杀,安东尼也躺在病床上昏迷不醒。在不久奇迹般的苏醒后,安东尼发现自己的老婆已经被差点要了自己命的那个毒贩给绑架了。现在他再没有什么东西可以失去,只能义无反顾的去救出自己的亲人,为了正义不惜一切代价。


Video
ID                                       : 1
Format                                   : AVC
Format/Info                              : Advanced Video Codec
Format profile                           : [email protected]
Format settings, CABAC                   : Yes
Format settings, ReFrames                : 5 frames
Codec ID                                 : V_MPEG4/ISO/AVC
Duration                                 : 1h 46mn
Bit rate                                 : 10.6 Mbps
Width                                    : 1 920 pixels
Height                                   : 816 pixels
Display aspect ratio                     : 2.35:1
Frame rate mode                          : Constant
Frame rate                               : 23.976 fps
Color space                              : YUV
Chroma subsampling                       : 4:2:0
Bit depth                                : 8 bits
Scan type                                : Progressive
Bits/(Pixel*Frame)                       : 0.282
Stream size                              : 7.71 GiB (86%)
Writing library                          : x264 core 61 r951M 445d87e
Encoding settings                        : cabac=1 / ref=5 / deblock=1:0:0 / analyse=0x3:0x113 / me=umh / subme=7 / psy_rd=1.0:1.0 / brdo=1 / mixed_ref=1 / me_range=16 / chroma_me=1 / trellis=1 / 8x8dct=1 / cqm=0 / deadzone=21,11 / chroma_qp_offset=-4 / threads=6 / nr=0 / decimate=1 / mbaff=0 / bframes=3 / b_pyramid=1 / b_adapt=1 / b_bias=0 / direct=3 / wpredb=1 / bime=1 / keyint=250 / keyint_min=25 / scenecut=40(pre) / rc=2pass / bitrate=10582 / ratetol=1.0 / rceq=\'blurCplx^(1-qComp)\' / qcomp=1.00 / qpmin=10 / qpmax=51 / qpstep=4 / cplxblur=20.0 / qblur=0.5 / ip_ratio=1.10 / pb_ratio=1.10 / aq=2:1.00
Language                                 : English
Default                                  : Yes
Forced                                   : No

Audio
ID                                       : 2
Format                                   : DTS
Format/Info                              : Digital Theater Systems
Mode                                     : 16
Format settings, Endianness              : Big
Codec ID                                 : A_DTS
Duration                                 : 1h 46mn
Bit rate mode                            : Constant
Bit rate                                 : 1 509 Kbps
Channel(s)                               : 6 channels
Channel positions                        : Front: L C R, Side: L R, LFE
Sampling rate                            : 48.0 KHz
Frame rate                               : 93.750 fps (512 spf)
Bit depth                                : 16 bits
Compression mode                         : Lossy
Stream size                              : 1.13 GiB (12%)
Language                                 : English
Default                                  : Yes
Forced                                   : No







                                                                                                                                                                                                       

                                                                                                                       
                                                                                                                                                                                                                                                        Until.Death.2007.UNRATED.1080p.BluRay.x264.DTS-FGT.torrent (90.8 KB, 下载次数: 50)

回复

使用道具 举报

小黑屋|磁力链接吧 |网站地图

本网站所有资源来自网络,如无意中侵犯了您的权益,请发邮件至 [email protected],立即清除相关链接

GMT+8, 2020-9-27 22:19 , Processed in 0.117239 second(s), 23 queries .

Powered by Discuz! X3.2

© 2001-2013 Comsenz Inc.

快速回复 返回顶部 返回列表