磁力链接吧

 找回密码
 立即注册
搜索

[BT下载]王者之心/崔斯坦和依索德 Tristan.and.Isolde.2006.1080p.BluRay.x264.DTS-FG ...

[复制链接]
电影首发 发表于 2016-3-18 08:47:00 | 显示全部楼层 |阅读模式

译  名 王者之心/崔斯坦和依索德/崔斯坦与伊索德/特里斯坦和伊索尔德
片  名 Tristan + Isolde
年  代 2006
国  家 美国/英国/德国/捷克
类  别 剧情/动作/爱情/冒险/古装
语  言 英语
上映日期 2006-01-13(美国)
片  长 125 分钟
导  演 凯文·雷诺兹 Kevin Reynolds
主  演 詹姆斯·弗兰科 James Franco
      索非亚·迈尔斯 Sophia Myles
      卢夫斯·塞维尔 Rufus Sewell
      大卫·奥哈拉 David O'Hara
      Mark Strong
      亨利·卡维尔 Henry Cavill


简  介


  中世纪,罗马帝国毁灭,各方势力分割盘踞英格兰,爱尔兰国王乘机聚集势力、虎视眈眈。雄图大略的马克王(卢夫斯·塞维尔 Rufus Sewell 饰)希望在传奇骑士特里斯坦(詹姆斯·弗兰科 James Franco 饰)的帮助下实现统一大业。失去双亲特里斯坦的他被马克王悉心抚养长大,情同父子。为分裂英格兰各部落,爱尔兰王决定以女儿为奖品举办全英骑士大赛。特里斯坦为马克王赢得了公主,但当看到公主的真面目时他如遭雷击。原来他曾在进攻爱尔兰的战斗中身负重伤,得到了神秘爱尔兰女子伊索尔德(索非亚·迈尔斯 Sophia Myles 饰)的照顾。两人由此相爱,但为了统一大业不得不分离。不管是为了国家和平还是为了养育之情,特里斯坦和伊索尔德都无法再继续恋情。
  他们将如何压抑这份热情?而爱尔兰国王的阴谋是否给马克王的统一大业带去障碍?


Video
ID                                       : 1
Format                                   : AVC
Format/Info                              : Advanced Video Codec
Format profile                           : [email protected]
Format settings, CABAC                   : Yes
Format settings, ReFrames                : 4 frames
Codec ID                                 : V_MPEG4/ISO/AVC
Duration                                 : 2h 5mn
Bit rate                                 : 10.6 Mbps
Width                                    : 1 920 pixels
Height                                   : 1 040 pixels
Display aspect ratio                     : 1.85:1
Frame rate mode                          : Constant
Frame rate                               : 23.976 (24000/1001) fps
Color space                              : YUV
Chroma subsampling                       : 4:2:0
Bit depth                                : 8 bits
Scan type                                : Progressive
Bits/(Pixel*Frame)                       : 0.222
Stream size                              : 9.31 GiB (86%)
Writing library                          : x264 core 125 r2208 d9d2288
Encoding settings                        : cabac=1 / ref=4 / deblock=1:-1:-1 / analyse=0x3:0x133 / me=umh / subme=7 / psy=1 / psy_rd=1.00:0.15 / mixed_ref=1 / me_range=16 / chroma_me=1 / trellis=1 / 8x8dct=1 / cqm=0 / deadzone=21,11 / fast_pskip=0 / chroma_qp_offset=-3 / threads=12 / lookahead_threads=2 / sliced_threads=0 / nr=0 / decimate=1 / interlaced=0 / bluray_compat=0 / constrained_intra=0 / bframes=3 / b_pyramid=2 / b_adapt=1 / b_bias=0 / direct=3 / weightb=1 / open_gop=0 / weightp=2 / keyint=240 / keyint_min=23 / scenecut=40 / intra_refresh=0 / rc_lookahead=40 / rc=crf / mbtree=1 / crf=20.0 / qcomp=0.60 / qpmin=0 / qpmax=69 / qpstep=4 / ip_ratio=1.40 / aq=1:1.00
Language                                 : English
Default                                  : Yes
Forced                                   : No

Audio
ID                                       : 2
Format                                   : DTS
Format/Info                              : Digital Theater Systems
Mode                                     : 16
Format settings, Endianness              : Big
Codec ID                                 : A_DTS
Duration                                 : 2h 5mn
Bit rate mode                            : Constant
Bit rate                                 : 1 509 Kbps
Channel(s)                               : 6 channels
Channel positions                        : Front: L C R, Side: L R, LFE
Sampling rate                            : 48.0 KHz
Frame rate                               : 93.750 fps (512 spf)
Bit depth                                : 24 bits
Compression mode                         : Lossy
Stream size                              : 1.32 GiB (12%)
Language                                 : English
Default                                  : Yes
Forced                                   : No






                                                                                                                                                                                                       

                                                                                                                       
                                                                                                                                                                                                                                                        Tristan.and.Isolde.2006.1080p.BluRay.x264.DTS-FGT.torrent (54.84 KB, 下载次数: 20)

回复

使用道具 举报

小黑屋|磁力链接吧 |网站地图

本网站所有资源来自网络,如无意中侵犯了您的权益,请发邮件至 [email protected],立即清除相关链接

GMT+8, 2020-9-28 13:20 , Processed in 0.111418 second(s), 23 queries .

Powered by Discuz! X3.2

© 2001-2013 Comsenz Inc.

快速回复 返回顶部 返回列表