磁力链接吧

 找回密码
 立即注册
搜索

[剧情片] [BT下载]我爱你,我爱你 Je.Taime.Je.Taime.1968.720p.BluRay.x264-USURY 4.37GB ... ...

[复制链接]
电影首发 发表于 2016-3-17 08:29:00 | 显示全部楼层 |阅读模式



译  名 我爱你,我爱你
片  名 Je t'aime, je t'aime
年  代 1968
国  家 法国
类  别 剧情/科幻
语  言 法语
上映日期 1968-04-26
片  长 USA: 91 分钟/France: 94 分钟
导  演 阿伦·雷乃 Alain Resnais
主  演 克劳德·里奇 Claude Rich
      Olga Georges-Picot
      Anouk Ferjac


简  介


  里德自杀未遂,两名男子前来造访,请他参加一个时空旅行的实验,看看他能否捕捉过去的某一刻。他跟一只已经被实验过的老鼠一起从一个无人的郊区送到某试验室,穿越时间,但迷失了方向。科学家们正为这个丢失的试验品发愁,关于他从前生活的点点滴滴却不断显现,其中一个似乎暗示他曾杀死他的女友。一切线索都指向他自杀的一瞬。而在现实中,里德的尸体出现在实验室的地下。


获奖情况


  第21届戛纳电影节  (1968)
  主竞赛单元 金棕榈奖(提名) 阿伦·雷乃



Video
ID                                       : 1
Format                                   : AVC
Format/Info                              : Advanced Video Codec
Format profile                           : [email protected]
Format settings, CABAC                   : Yes
Format settings, ReFrames                : 5 frames
Codec ID                                 : V_MPEG4/ISO/AVC
Duration                                 : 1h 34mn
Bit rate                                 : 5 082 Kbps
Width                                    : 1 200 pixels
Height                                   : 720 pixels
Display aspect ratio                     : 5:3
Frame rate mode                          : Constant
Frame rate                               : 23.976 fps
Color space                              : YUV
Chroma subsampling                       : 4:2:0
Bit depth                                : 8 bits
Scan type                                : Progressive
Bits/(Pixel*Frame)                       : 0.245
Stream size                              : 3.37 GiB (77%)
Writing library                          : x264 core 148 r2665 a01e339
Encoding settings                        : cabac=1 / ref=5 / deblock=1:0:0 / analyse=0x3:0x133 / me=umh / subme=7 / psy=1 / psy_rd=1.00:0.00 / mixed_ref=1 / me_range=16 / chroma_me=1 / trellis=1 / 8x8dct=1 / cqm=0 / deadzone=21,11 / fast_pskip=0 / chroma_qp_offset=-2 / threads=18 / lookahead_threads=3 / sliced_threads=0 / nr=0 / decimate=1 / interlaced=0 / bluray_compat=0 / constrained_intra=0 / bframes=3 / b_pyramid=2 / b_adapt=2 / b_bias=0 / direct=3 / weightb=1 / open_gop=0 / weightp=2 / keyint=250 / keyint_min=23 / scenecut=40 / intra_refresh=0 / rc_lookahead=50 / rc=2pass / mbtree=1 / bitrate=5082 / ratetol=1.0 / qcomp=0.60 / qpmin=0 / qpmax=69 / qpstep=4 / cplxblur=20.0 / qblur=0.5 / ip_ratio=1.40 / aq=1:1.00
Language                                 : English
Default                                  : Yes
Forced                                   : No

Audio
ID                                       : 2
Format                                   : DTS
Format/Info                              : Digital Theater Systems
Mode                                     : 16
Format settings, Endianness              : Big
Codec ID                                 : A_DTS
Duration                                 : 1h 34mn
Bit rate mode                            : Constant
Bit rate                                 : 1 509 Kbps
Channel(s)                               : 2 channels
Channel positions                        : Front: L R
Sampling rate                            : 48.0 KHz
Frame rate                               : 93.750 fps (512 spf)
Bit depth                                : 24 bits
Compression mode                         : Lossy
Stream size                              : 1.00 GiB (23%)
Language                                 : French
Default                                  : Yes
Forced                                   : No

Text
ID                                       : 3
Format                                   : UTF-8
Codec ID                                 : S_TEXT/UTF8
Codec ID/Info                            : UTF-8 Plain Text
Duration                                 : 1h 32mn
Bit rate                                 : 44 bps
Count of elements                        : 1126
Stream size                              : 30.4 KiB (0%)
Language                                 : English
Default                                  : Yes
Forced                                   : Yes

Menu
00:00:00.000                             : en:00:00:00.000
00:08:51.281                             : en:00:08:51.281
00:17:35.930                             : en:00:17:35.930
00:28:25.370                             : en:00:28:25.370
00:40:15.913                             : en:00:40:15.913
00:50:12.676                             : en:00:50:12.676
01:00:48.645                             : en:01:00:48.645
01:09:18.780                             : en:01:09:18.780
01:18:54.313                             : en:01:18:54.313
01:27:33.832                             : en:01:27:33.832



                                                                                                                                                                                                        

                                                                                                                        
                               Je.Taime.Je.Taime.1968.720p.BluRay.x264-USURY.torrent (175.38 KB, 下载次数: 29)

回复

使用道具 举报

小黑屋|磁力链接吧 |网站地图

本网站所有资源来自网络,如无意中侵犯了您的权益,请发邮件至 [email protected],立即清除相关链接

GMT+8, 2021-1-21 01:20 , Processed in 0.106537 second(s), 23 queries .

Powered by Discuz! X3.2

© 2001-2013 Comsenz Inc.

快速回复 返回顶部 返回列表