磁力链接吧

 找回密码
 立即注册
搜索

[剧情片] [BT下载]自白/母亲 Confessions.2010.JAPANESE.1080p.BluRay.x264.DTS-FGT 8.69GB ... ...

[复制链接]
电影首发 发表于 2016-3-17 08:21:00 | 显示全部楼层 |阅读模式

译  名 自白/母亲
片  名 告白
年  代 2010
国  家 日本
类  别 剧情/惊悚
语  言 日语
上映日期 2010-06-05(日本)
片  长 106分钟
导  演 中岛哲也 Tetsuya Nakashima
主  演 松隆子 Takako Matsu
      冈田将生 Masaki Okada
      木村佳乃 Yoshino Kimura
      西井幸人 Yukito Nishii
      桥本爱 Ai Hashimoto
      芦田爱菜 Ashida Mana
      三吉彩花 Ayaka Miyoshi
      藤原薰 Kaoru Fujiwara
      井之肋海 Kai Inowaki
      清水尚弥 Naoya Shimizu
      高桥努 Tsutomu Takahashi
      一井直树 Naoki Ichii
      能年玲奈 Rena Nounen
      新井浩文 Hirofumi Arai
      野本萤 Hotaru Nomoto


简  介


  一所平凡的中学,1年B组即将迎来春假。不知天高地厚的学生们肆意吵闹,殊不知一场绵亘数月的风暴正向他们袭来。级任教师森口悠子(松隆子 饰)全然无视这片混乱,静静地向学生们做出最后的告白。这个单亲妈妈独自抚养着可爱的女儿(芦田爱菜 饰),然而女儿最终在游泳池中溺水身亡。警察 认定这是一起意外,森口则认定女儿死于班上两个学生之手。她不动声色地指责着犯人A和B,并宣布用自己的方式进行复仇。在此之后,森口辞去教师职务,1年B班的学生也心怀惴惴迎来了春假。新学期开始,残酷的风暴袭向了这群无知无畏的少男少女……
  本片根据湊かなえ的原作改编,并成为2010年电影旬报十佳影片;第34届日本电影学院奖最佳作品、最佳导演、最佳剧本和最佳剪辑4项大奖。


获奖情况


  第30届香港电影金像奖  (2011)
  最佳亚洲电影


  第34届日本电影学院奖  (2011)
  最佳影片
  最佳导演 中岛哲也
  最佳编剧 中岛哲也
  最佳女主角(提名) 松隆子
  最佳男配角(提名) 冈田将生
  最佳女配角(提名) 木村佳乃
  最佳摄影(提名) 尾泽笃史 / 阿藤正一
  最佳美术指导(提名) 桑岛十和子
  最佳照明(提名) 高仓进
  最佳录音(提名) 矢野正人
  最佳剪辑 小池义幸


  第5届亚洲电影大奖  (2011)
  我最喜爱的男女主角 我最喜爱的女主角(提名) 松隆子
  最佳电影(提名)
  最佳导演(提名) 中岛哲也
  最佳女主角(提名) 松隆子
  最佳男配角(提名) 冈田将生
  最佳女配角(提名) 木村佳乃
  最佳剪接(提名) 小池义幸


  第35届报知映画赏  (2010)
  最佳导演 中岛哲也


Video
ID                                       : 1
Format                                   : AVC
Format/Info                              : Advanced Video Codec
Format profile                           : [email protected]
Format settings, CABAC                   : Yes
Format settings, ReFrames                : 4 frames
Codec ID                                 : V_MPEG4/ISO/AVC
Duration                                 : 1h 46mn
Bit rate                                 : 10.2 Mbps
Width                                    : 1 920 pixels
Height                                   : 1 080 pixels
Display aspect ratio                     : 16:9
Frame rate mode                          : Constant
Frame rate                               : 23.976 fps
Color space                              : YUV
Chroma subsampling                       : 4:2:0
Bit depth                                : 8 bits
Scan type                                : Progressive
Bits/(Pixel*Frame)                       : 0.205
Stream size                              : 7.39 GiB (85%)
Writing library                          : x264 core 107 r1766 f9f0035
Encoding settings                        : cabac=1 / ref=4 / deblock=1:-3:-3 / analyse=0x3:0x113 / me=umh / subme=9 / psy=1 / psy_rd=1.05:0.10 / mixed_ref=1 / me_range=32 / chroma_me=1 / trellis=2 / 8x8dct=1 / cqm=2 / deadzone=21,11 / fast_pskip=0 / chroma_qp_offset=-2 / threads=12 / sliced_threads=0 / nr=0 / decimate=1 / interlaced=0 / constrained_intra=0 / bframes=6 / b_pyramid=2 / b_adapt=2 / b_bias=0 / direct=3 / weightb=1 / open_gop=0 / weightp=2 / keyint=250 / keyint_min=23 / scenecut=40 / intra_refresh=0 / rc_lookahead=50 / rc=2pass / mbtree=1 / bitrate=10185 / ratetol=1.0 / qcomp=0.70 / qpmin=10 / qpmax=51 / qpstep=4 / cplxblur=20.0 / qblur=0.5 / vbv_maxrate=40000 / vbv_bufsize=30000 / ip_ratio=1.40 / aq=1:0.80 / nal_hrd=none
Language                                 : Japanese
Default                                  : No
Forced                                   : No

Audio
ID                                       : 2
Format                                   : DTS
Format/Info                              : Digital Theater Systems
Mode                                     : 16
Format settings, Endianness              : Big
Codec ID                                 : A_DTS
Duration                                 : 1h 46mn
Bit rate mode                            : Constant
Bit rate                                 : 1 509 Kbps
Channel(s)                               : 6 channels
Channel positions                        : Front: L C R, Side: L R, LFE
Sampling rate                            : 48.0 KHz
Frame rate                               : 93.750 fps (512 spf)
Bit depth                                : 24 bits
Compression mode                         : Lossy
Stream size                              : 1.12 GiB (13%)
Language                                 : Japanese
Default                                  : No
Forced                                   : No

Text
ID                                       : 3
Format                                   : UTF-8
Codec ID                                 : S_TEXT/UTF8
Codec ID/Info                            : UTF-8 Plain Text
Language                                 : English
Default                                  : Yes
Forced                                   : Yes





                                                                                                                                                                                                       

                                                                                                                       
                                                                                                                                                                                                                                                        Confessions.2010.JAPANESE.1080p.BluRay.x264.DTS-FGT.torrent (87.5 KB, 下载次数: 64)

回复

使用道具 举报

小黑屋|磁力链接吧 |网站地图

本网站所有资源来自网络,如无意中侵犯了您的权益,请发邮件至 [email protected],立即清除相关链接

GMT+8, 2020-9-24 07:21 , Processed in 0.123022 second(s), 23 queries .

Powered by Discuz! X3.2

© 2001-2013 Comsenz Inc.

快速回复 返回顶部 返回列表