磁力链接吧

 找回密码
 立即注册
搜索

[BT下载]高楼惊魂 Tower.Block.2012.1080p.BluRay.x264.DTS-FGT 10.02GB

[复制链接]
电影首发 发表于 2016-3-17 08:21:00 | 显示全部楼层 |阅读模式

译  名 高楼惊魂
片  名 Tower Block
年  代 2012
国  家 英国
类  别 惊悚
语  言 英语
上映日期 2012-11-21(英国)
片  长 90分钟
导  演 詹姆斯·纳恩 James Nunn / 罗尼·汤普森 Ronnie Thompson
主  演 谢里丹·史密斯 Sheridan Smith
      杰克·奥康奈尔 Jack O'Connell
      拉尔夫 布朗 Ralph Brown
      拉塞尔·托维 Russell Tovey
      吉尔·贝克 Jill Baker
      史蒂芬·克里 Steven Cree
      朱莉·格雷厄姆 Julie Graham
      杰米·托马斯·金 Jamie Thomas King
      迈克尔·莱格 Michael Legge
      蒙特瑟拉特·朗巴德 Montserrat Lombard


简  介


  即将拆除的塔楼,只剩下最后15位住户了。一个神秘狙击手nicktime和他的高动力、低噪音步枪,逐个瞄准枪击他们。没人听到枪声,没有任何外来帮助。如果受惊的受害者不能找到这个迷宫般塔楼的逃生之路,他们都将被一个接一个地枪杀。


Video
ID                                       : 1
Format                                   : AVC
Format/Info                              : Advanced Video Codec
Format profile                           : [email protected]
Format settings, CABAC                   : Yes
Format settings, ReFrames                : 4 frames
Codec ID                                 : V_MPEG4/ISO/AVC
Duration                                 : 1h 30mn
Bit rate                                 : 14.8 Mbps
Width                                    : 1 920 pixels
Height                                   : 1 080 pixels
Display aspect ratio                     : 16:9
Frame rate mode                          : Constant
Frame rate                               : 23.976 (24000/1001) fps
Color space                              : YUV
Chroma subsampling                       : 4:2:0
Bit depth                                : 8 bits
Scan type                                : Progressive
Bits/(Pixel*Frame)                       : 0.298
Stream size                              : 9.34 GiB (93%)
Writing library                          : x264 core 130 r2273 b3065e6
Encoding settings                        : cabac=1 / ref=4 / deblock=1:-1:-1 / analyse=0x3:0x113 / me=umh / subme=10 / psy=1 / psy_rd=1.00:0.15 / mixed_ref=1 / me_range=48 / chroma_me=1 / trellis=2 / 8x8dct=1 / cqm=0 / deadzone=21,11 / fast_pskip=1 / chroma_qp_offset=-3 / threads=12 / lookahead_threads=3 / sliced_threads=0 / nr=0 / decimate=1 / interlaced=0 / bluray_compat=0 / constrained_intra=0 / bframes=11 / b_pyramid=2 / b_adapt=2 / b_bias=0 / direct=3 / weightb=1 / open_gop=0 / weightp=2 / keyint=250 / keyint_min=24 / scenecut=40 / intra_refresh=0 / rc_lookahead=40 / rc=crf / mbtree=0 / crf=19.0 / qcomp=0.60 / qpmin=10 / qpmax=51 / qpstep=4 / vbv_maxrate=50000 / vbv_bufsize=62500 / crf_max=0.0 / nal_hrd=none / ip_ratio=1.40 / pb_ratio=1.30 / aq=2:1.00
Language                                 : English
Default                                  : Yes
Forced                                   : No

Audio
ID                                       : 2
Format                                   : DTS
Format/Info                              : Digital Theater Systems
Mode                                     : 16
Format settings, Endianness              : Big
Codec ID                                 : A_DTS
Duration                                 : 1h 30mn
Bit rate mode                            : Constant
Bit rate                                 : 768 Kbps
Channel(s)                               : 6 channels
Channel positions                        : Front: L C R, Side: L R, LFE
Sampling rate                            : 48.0 KHz
Frame rate                               : 93.750 fps (512 spf)
Bit depth                                : 24 bits
Compression mode                         : Lossy
Stream size                              : 495 MiB (5%)
Language                                 : English
Default                                  : No
Forced                                   : No






                                                                                                                                                                                                       

                                                                                                                       
                                                                                                                                                                                                                                                        Tower.Block.2012.1080p.BluRay.x264.DTS-FGT.torrent (50.7 KB, 下载次数: 26)

回复

使用道具 举报

小黑屋|磁力链接吧 |网站地图

本网站所有资源来自网络,如无意中侵犯了您的权益,请发邮件至 [email protected],立即清除相关链接

GMT+8, 2020-9-26 12:57 , Processed in 0.114464 second(s), 23 queries .

Powered by Discuz! X3.2

© 2001-2013 Comsenz Inc.

快速回复 返回顶部 返回列表