磁力链接吧

 找回密码
 立即注册
搜索

[动作片] [BT下载]赤警威龙/爆头/全面行动 Bullet.to.the.Head.2012.1080p.BluRay.x264.DTS-FGT ...

[复制链接]
电影首发 发表于 2016-3-17 08:21:00 | 显示全部楼层 |阅读模式

译  名 赤警威龙/爆头/全面行动(台)/重弹头(港)/爆头哥
片  名 Bullet to the Head
年  代 2012
国  家 美国
类  别 动作/犯罪/惊悚
语  言 英语
上映日期 2012-11-04(罗马电影节)/2013-02-01(美国)/2013-07-09(中国大陆)
片  长 91分钟
导  演 沃尔特·希尔 Walter Hill
主  演 西尔维斯特·史泰龙 Sylvester Stallone
      成康 Sung Kang
      莎拉·沙黑 Sarah Shahi
      阿德沃尔·阿吉纽依-艾格拜吉 Adewale Akinnuoye-Agbaje
      杰森·莫玛 Jason Momoa
      克里斯汀·史莱特 Christian Slater
      乔恩·塞达 Jon Seda
      霍尔特·麦克卡兰尼 Holt McCallany
      布莱恩·范·霍尔特 Brian Van Holt
      维罗妮卡·罗萨蒂 Weronika Rosati


简  介


  吉米·波波(西尔维斯特·史泰龙 Sylvester Stallone 饰)是一名混迹黑道、刀头舔血的杀手,他奉行不杀女人和儿童的原则,和合作长达六年的搭档路易斯·布兰查登(乔恩·塞达 Jon Seda 饰)将一个个渣滓送往地狱。在刺杀前恶德警察格雷利的行动中,吉米恻隐心动,冒险放走了一名女子。未过多久,路易斯在酒吧争执中遇害。警方根据女人的口供和路易斯的身份,顺藤摸瓜查到吉米。探员泰勒·科旺(姜成镐 饰)辗转与吉米接洽,谁知却遭到一伙不明身份之人的袭击。身受枪伤并且意外杀死警察的泰勒得到吉米的救助,这两个分出黑白两道的男人被迫联合在一起。
  而在接二连三的袭击背后,不为人知的阴谋正有条不紊地展开……


获奖情况


  第34届金酸莓奖  (2014)
  最差男主角(提名) 西尔维斯特·史泰龙




Video
ID                                       : 1
Format                                   : AVC
Format/Info                              : Advanced Video Codec
Format profile                           : [email protected]
Format settings, CABAC                   : Yes
Format settings, ReFrames                : 4 frames
Codec ID                                 : V_MPEG4/ISO/AVC
Duration                                 : 1h 31mn
Bit rate                                 : 10.9 Mbps
Width                                    : 1 920 pixels
Height                                   : 1 036 pixels
Display aspect ratio                     : 1.85:1
Frame rate mode                          : Constant
Frame rate                               : 23.976 fps
Color space                              : YUV
Chroma subsampling                       : 4:2:0
Bit depth                                : 8 bits
Scan type                                : Progressive
Bits/(Pixel*Frame)                       : 0.228
Stream size                              : 6.79 GiB (86%)
Writing library                          : x264 core 125 r2208 d9d2288
Encoding settings                        : cabac=1 / ref=4 / deblock=1:-3:-3 / analyse=0x3:0x113 / me=umh / subme=10 / psy=1 / psy_rd=1.00:0.05 / mixed_ref=1 / me_range=32 / chroma_me=1 / trellis=2 / 8x8dct=1 / cqm=0 / deadzone=21,11 / fast_pskip=0 / chroma_qp_offset=-2 / threads=8 / lookahead_threads=1 / sliced_threads=0 / nr=0 / decimate=1 / interlaced=0 / bluray_compat=0 / constrained_intra=0 / bframes=5 / b_pyramid=2 / b_adapt=2 / b_bias=0 / direct=3 / weightb=1 / open_gop=0 / weightp=2 / keyint=250 / keyint_min=23 / scenecut=40 / intra_refresh=0 / rc=2pass / mbtree=0 / bitrate=10876 / ratetol=1.0 / qcomp=0.70 / qpmin=0 / qpmax=69 / qpstep=4 / cplxblur=20.0 / qblur=0.5 / ip_ratio=1.40 / pb_ratio=1.30 / aq=2:1.00
Language                                 : English
Default                                  : Yes
Forced                                   : No

Audio
ID                                       : 2
Format                                   : DTS
Format/Info                              : Digital Theater Systems
Mode                                     : 16
Format settings, Endianness              : Big
Codec ID                                 : A_DTS
Duration                                 : 1h 31mn
Bit rate mode                            : Constant
Bit rate                                 : 1 509 Kbps
Channel(s)                               : 6 channels
Channel positions                        : Front: L C R, Side: L R, LFE
Sampling rate                            : 48.0 KHz
Frame rate                               : 93.750 fps (512 spf)
Bit depth                                : 24 bits
Compression mode                         : Lossy
Stream size                              : 988 MiB (12%)
Language                                 : English
Default                                  : Yes
Forced                                   : No





                                                                                                                                                                                                       

                                                                                                                       
                                                                                                                                                                                                                                                        Bullet.to.the.Head.2012.1080p.BluRay.x264.DTS-FGT.torrent (79.76 KB, 下载次数: 59)

回复

使用道具 举报

小黑屋|磁力链接吧 |网站地图

本网站所有资源来自网络,如无意中侵犯了您的权益,请发邮件至 [email protected],立即清除相关链接

GMT+8, 2020-9-30 14:46 , Processed in 0.135112 second(s), 23 queries .

Powered by Discuz! X3.2

© 2001-2013 Comsenz Inc.

快速回复 返回顶部 返回列表