磁力链接吧

 找回密码
 立即注册
搜索

[动作片] [BT下载]底线 Baseline.2010.1080p.BluRay.x264.DTS-FGT 4.4GB

[复制链接]
电影首发 发表于 2016-3-17 08:21:00 | 显示全部楼层 |阅读模式



译  名 底线
片  名 Baseline
年  代 2010
国  家 英国/加拿大
类  别 动作/犯罪/剧情
语  言 英语
上映日期 2010
片  长 96 分钟
导  演 Brendon O'Loughlin
主  演 Jamie Foreman
      德克斯特·弗莱彻 Dexter Fletcher
      Zoe Tapper


简  介


  Baseline是东伦敦煤尘俱乐部的中心,影响着周围的街区。丹尼在这看门,负责处理打架斗殴的人和醉鬼。然而,当他在一次刺杀事件中救了特里(俱乐部老板兼当地黑帮头目)之后,丹尼突然陷入深深的黑社会纠结中,而这正是他曾尽力要回避的局面。丹尼升职为经理。他和其女友还梦想着拥有自己的俱乐部。当丹尼面临忠诚与离开的选择时,他必须要作出牺牲。




Video
ID                                       : 1
Format                                   : AVC
Format/Info                              : Advanced Video Codec
Format profile                           : [email protected]
Format settings, CABAC                   : Yes
Format settings, ReFrames                : 4 frames
Codec ID                                 : V_MPEG4/ISO/AVC
Duration                                 : 1h 35mn
Bit rate                                 : 4 944 Kbps
Width                                    : 1 920 pixels
Height                                   : 1 080 pixels
Display aspect ratio                     : 16:9
Frame rate mode                          : Constant
Frame rate                               : 23.976 (24000/1001) fps
Color space                              : YUV
Chroma subsampling                       : 4:2:0
Bit depth                                : 8 bits
Scan type                                : Progressive
Bits/(Pixel*Frame)                       : 0.099
Stream size                              : 3.30 GiB (75%)
Writing library                          : x264 core 116 r2044 392e762
Encoding settings                        : cabac=1 / ref=4 / deblock=1:0:0 / analyse=0x3:0x133 / me=umh / subme=7 / psy=1 / psy_rd=1.00:0.00 / mixed_ref=1 / me_range=16 / chroma_me=1 / trellis=1 / 8x8dct=1 / cqm=0 / deadzone=21,11 / fast_pskip=0 / chroma_qp_offset=-2 / threads=6 / sliced_threads=0 / nr=0 / decimate=1 / interlaced=0 / bluray_compat=0 / constrained_intra=0 / bframes=3 / b_pyramid=2 / b_adapt=1 / b_bias=0 / direct=3 / weightb=1 / open_gop=0 / weightp=2 / keyint=250 / keyint_min=23 / scenecut=40 / intra_refresh=0 / rc_lookahead=40 / rc=crf / mbtree=1 / crf=20.0 / qcomp=0.60 / qpmin=10 / qpmax=51 / qpstep=4 / ip_ratio=1.40 / aq=1:1.00
Language                                 : English
Default                                  : Yes
Forced                                   : No

Audio
ID                                       : 2
Format                                   : DTS
Format/Info                              : Digital Theater Systems
Mode                                     : 16
Format settings, Endianness              : Big
Codec ID                                 : A_DTS
Duration                                 : 1h 35mn
Bit rate mode                            : Constant
Bit rate                                 : 1 509 Kbps
Channel(s)                               : 6 channels
Channel positions                        : Front: L C R, Side: L R, LFE
Sampling rate                            : 48.0 KHz
Frame rate                               : 93.750 fps (512 spf)
Bit depth                                : 16 bits
Compression mode                         : Lossy
Stream size                              : 1.01 GiB (23%)
Language                                 : English
Default                                  : No
Forced                                   : No





                                                                                                                                                                                                       

                                                                                                                       
                                                                                                                                                                                                                                                        Baseline.2010.1080p.BluRay.x264.DTS-FGT.torrent (88.54 KB, 下载次数: 26)

回复

使用道具 举报

小黑屋|磁力链接吧 |网站地图

本网站所有资源来自网络,如无意中侵犯了您的权益,请发邮件至 [email protected],立即清除相关链接

GMT+8, 2020-9-24 06:43 , Processed in 0.113160 second(s), 23 queries .

Powered by Discuz! X3.2

© 2001-2013 Comsenz Inc.

快速回复 返回顶部 返回列表