磁力链接吧

 找回密码
 立即注册
搜索

[BT下载]驯龙骑士 Justin.and.the.Knights.of.Valour.2013.1080p.BluRay.x264.DTS-FGT ...

[复制链接]
电影首发 发表于 2016-3-17 08:21:00 | 显示全部楼层 |阅读模式

译  名 驯龙骑士/天平与剑/渣斯汀大任务(港)/贾斯汀出任务(台)/戈洛尔:天平与剑/铁剑骑勇
片  名 Justin y la Espada del Valor
年  代 2013
国  家 西班牙
类  别 动画/冒险
语  言 英语
上映日期 2013-09-20(西班牙)/2014-03-28(中国大陆)
片  长 90分钟
导  演 曼努埃尔·西西里阿 Manuel Sicilia
主  演 安东尼奥·班德拉斯 Antonio Banderas
      詹姆斯·卡沙莫 James Cosmo
      迈克尔·卡尔金 Michael Culkin
      查尔斯·丹斯 Charles Dance
      塔姆欣·伊格顿 Tamsin Egerton
      鲁伯特·艾弗雷特 Rupert Everett
      弗莱迪·海默 Freddie Highmore
      史蒂文·休斯 Stephen Hughes
      巴瑞·哈姆弗莱斯 Barry Humphries
      劳埃德·哈钦森 Lloyd Hutchinson
      阿尔弗雷德·莫里纳 Alfred Molina
      西尔莎·罗南 Saoirse Ronan
      马克·斯特朗 Mark Strong
      大卫·威廉姆斯 David Walliams
      朱丽·沃特斯 Julie Walters
      奥莉维亚·威廉姆斯 Olivia Williams


简  介


  屹立于中世纪的加布莱尼亚王国,曾经是骑士辈出的勇者之乡,但现如今司法已占据绝对的统治地位,舞刀弄剑不再受到褒扬,精通法律的人才会受到尊敬。瘦弱青年贾斯汀(弗莱迪·海默 Freddie Highmore 配音)是一名著名律师的儿子,他不愿像父亲那样走上法律的道路,而是希望成为爷爷罗兰爵士那样的传奇骑士。在祖母的鼓励下,贾斯汀踏上了追寻梦想的冒险旅程。路上他结识了酒吧女孩塔莉娅(西尔莎·罗南 Saoirse Ronan 配音)、怪怪巫师梅尔的您朋友,骑士的修行路上充满挑战。
  与此同时,贾斯汀所在的王国内,一伙罪恶之徒正悄悄实行着一系列邪恶的计划。命运将匡扶正义的使命交付在贾斯汀的手中……


获奖情况


  第28届西班牙戈雅奖  (2014)
  最佳动画片(提名) 安东尼奥·班德拉斯 / Marcelino Almansa / Kerry Fulton


Video
ID                                       : 1
Format                                   : AVC
Format/Info                              : Advanced Video Codec
Format profile                           : [email protected]
Format settings, CABAC                   : Yes
Format settings, ReFrames                : 5 frames
Codec ID                                 : V_MPEG4/ISO/AVC
Duration                                 : 1h 35mn
Bit rate                                 : 12.4 Mbps
Width                                    : 1 920 pixels
Height                                   : 804 pixels
Display aspect ratio                     : 2.40:1
Frame rate mode                          : Constant
Frame rate                               : 24.000 fps
Color space                              : YUV
Chroma subsampling                       : 4:2:0
Bit depth                                : 8 bits
Scan type                                : Progressive
Bits/(Pixel*Frame)                       : 0.334
Stream size                              : 8.29 GiB (87%)
Writing library                          : x264 core 142 r2431+42 c69a006 tMod [[email protected] X86_64]
Encoding settings                        : cabac=1 / ref=5 / deblock=1:-3:-3 / analyse=0x3:0x133 / me=tesa / subme=10 / psy=1 / fade_compensate=0.00 / psy_rd=0.70:0.00 / mixed_ref=1 / me_range=24 / chroma_me=1 / trellis=2 / 8x8dct=1 / cqm=0 / deadzone=21,11 / fast_pskip=0 / chroma_qp_offset=-2 / threads=12 / lookahead_threads=1 / sliced_threads=0 / nr=0 / decimate=0 / interlaced=0 / bluray_compat=0 / constrained_intra=0 / fgo=0 / bframes=5 / b_pyramid=2 / b_adapt=2 / b_bias=0 / direct=3 / weightb=1 / open_gop=0 / weightp=2 / keyint=250 / keyint_min=24 / scenecut=40 / intra_refresh=0 / rc_lookahead=250 / rc=crf / mbtree=0 / crf=14.0000 / qcomp=0.65 / qpmin=0:0:0 / qpmax=69:69:69 / qpstep=4 / vbv_maxrate=62500 / vbv_bufsize=78125 / crf_max=0.0 / nal_hrd=none / filler=0 / ip_ratio=1.40 / pb_ratio=1.20 / aq=4:0.90 / aq-sensitivity=10.00 / aq-factor=1.00:1.00:1.00 / aq2=0 / aq3=0 / zones=17060,19655,crf=11/21774,21909,crf=13/34390,34834,crf=13/48605,48706,crf=13/70309,76893,crf=13/93992,95337,crf=13/111168,111518,crf=13/112713,112906,crf=13/115906,120233,crf=13
Default                                  : Yes
Forced                                   : No

Audio
ID                                       : 2
Format                                   : DTS
Format/Info                              : Digital Theater Systems
Mode                                     : 16
Format settings, Endianness              : Big
Codec ID                                 : A_DTS
Duration                                 : 1h 35mn
Bit rate mode                            : Constant
Bit rate                                 : 1 509 Kbps
Channel(s)                               : 6 channels
Channel positions                        : Front: L C R, Side: L R, LFE
Sampling rate                            : 48.0 KHz
Frame rate                               : 93.750 fps (512 spf)
Bit depth                                : 24 bits
Compression mode                         : Lossy
Stream size                              : 1.01 GiB (11%)
Language                                 : English
Default                                  : Yes
Forced                                   : No

Text #1
ID                                       : 3
Format                                   : UTF-8
Codec ID                                 : S_TEXT/UTF8
Codec ID/Info                            : UTF-8 Plain Text
Language                                 : English
Default                                  : No
Forced                                   : No

Text #2
ID                                       : 4
Format                                   : UTF-8
Codec ID                                 : S_TEXT/UTF8
Codec ID/Info                            : UTF-8 Plain Text
Language                                 : Danish
Default                                  : No
Forced                                   : No

Text #3
ID                                       : 5
Format                                   : UTF-8
Codec ID                                 : S_TEXT/UTF8
Codec ID/Info                            : UTF-8 Plain Text
Language                                 : Finnish
Default                                  : No
Forced                                   : No

Text #4
ID                                       : 6
Format                                   : UTF-8
Codec ID                                 : S_TEXT/UTF8
Codec ID/Info                            : UTF-8 Plain Text
Language                                 : Norwegian
Default                                  : No
Forced                                   : No

Text #5
ID                                       : 7
Format                                   : UTF-8
Codec ID                                 : S_TEXT/UTF8
Codec ID/Info                            : UTF-8 Plain Text
Language                                 : Swedish
Default                                  : No
Forced                                   : No

Menu
00:00:00.000                             : :00:00:00.000
00:11:51.458                             : :00:11:51.458
00:24:29.667                             : :00:24:29.667
00:37:47.625                             : :00:37:47.625
00:48:51.333                             : :00:48:51.333
01:04:26.292                             : :01:04:26.292
01:17:06.667                             : :01:17:06.667
01:30:08.875                             : :01:30:08.875





                                                                                                                                                                                                       

                                                                                                                       
                                                                                                                                                                                                                                                        Justin.and.the.Knights.of.Valour.2013.1080p.BluRay.x264.DTS-FGT.torrent (95.51 KB, 下载次数: 48)

回复

使用道具 举报

小黑屋|磁力链接吧 |网站地图

本网站所有资源来自网络,如无意中侵犯了您的权益,请发邮件至 [email protected],立即清除相关链接

GMT+8, 2021-1-28 17:21 , Processed in 0.145141 second(s), 23 queries .

Powered by Discuz! X3.2

© 2001-2013 Comsenz Inc.

快速回复 返回顶部 返回列表