磁力链接吧

 找回密码
 立即注册
搜索

[喜剧片] [BT下载]一个头两个大 Me.Myself.And.Irene.2000.1080p.BluRay.x264.DTS-MUxHD 8.1GB ...

[复制链接]
电影首发 发表于 2016-3-17 08:21:00 | 显示全部楼层 |阅读模式

译  名 一个头两个大/爱情黐筋Show/我,我自己和艾琳/神勇小男人
片  名 Me, Myself & Irene
年  代 2000
国  家 美国
类  别 喜剧
语  言 英语/德语
上映日期 2000-06-30
片  长 116 分钟
导  演 鲍比·法拉利 Bobby Farrelly / 彼得·法拉利 Peter Farrelly
主  演 金·凯瑞 Jim Carrey
      蕾妮·齐薇格 Renée Zellweger
      安东尼·安德森 Anthony Anderson
      克里斯·库珀 Chris Cooper
      理查德·詹金斯 Richard Jenkins


简  介


  查理(金•凯瑞 饰)是一名善良的巡警,他的妻子与别人偷情生下三个儿子后与情人私奔了。可是查理仍把三个儿子视为己出,儿子们也十分尊敬这个老爸。镇上的人们都欺负查理的善良,终于隐藏在查理体内的另一个狠角色——阿庆出现了。阿庆与查理截然不同,他到处捣乱,到处生事。
  警方为查理检查,发现他患上了精神分裂,需要用药物治疗。这时查理要护送美女伊莲(芮妮•齐薇格 饰)回去纽约,可是伊莲的前老板狄克所做的不法事情被举报了,他认为举报者就是伊莲,于是狄克买通了警察等人,誓要杀死伊莲。
  伊莲求助与查理,于是两人还有阿庆一起开展了一段亡命之旅。查理的药却丢在了旅馆里,于是一路上查理与阿庆毫无预兆的更换着,更复杂的是查理与阿庆都爱上了伊莲,查理与阿庆争风吃醋,争斗不断。而警察与狄克一直穷追不舍查理他们……


Video
ID                                       : 1
Format                                   : AVC
Format/Info                              : Advanced Video Codec
Format profile                           : [email protected]
Format settings, CABAC                   : Yes
Format settings, ReFrames                : 4 frames
Codec ID                                 : V_MPEG4/ISO/AVC
Duration                                 : 1h 56mn
Bit rate                                 : 8 449 Kbps
Width                                    : 1 920 pixels
Height                                   : 1 040 pixels
Display aspect ratio                     : 1.85:1
Frame rate mode                          : Constant
Frame rate                               : 23.976 (24000/1001) fps
Color space                              : YUV
Chroma subsampling                       : 4:2:0
Bit depth                                : 8 bits
Scan type                                : Progressive
Bits/(Pixel*Frame)                       : 0.176
Stream size                              : 6.72 GiB (83%)
Writing library                          : x264 core 146 r2538 121396c
Encoding settings                        : cabac=1 / ref=4 / deblock=1:0:0 / analyse=0x3:0x133 / me=umh / subme=7 / psy=1 / psy_rd=1.00:0.00 / mixed_ref=1 / me_range=16 / chroma_me=1 / trellis=1 / 8x8dct=1 / cqm=0 / deadzone=21,11 / fast_pskip=0 / chroma_qp_offset=-2 / threads=12 / lookahead_threads=2 / sliced_threads=0 / nr=0 / decimate=1 / interlaced=0 / bluray_compat=0 / constrained_intra=0 / bframes=3 / b_pyramid=2 / b_adapt=2 / b_bias=0 / direct=3 / weightb=1 / open_gop=0 / weightp=2 / keyint=240 / keyint_min=23 / scenecut=40 / intra_refresh=0 / rc_lookahead=50 / rc=2pass / mbtree=1 / bitrate=8449 / ratetol=1.0 / qcomp=0.60 / qpmin=0 / qpmax=69 / qpstep=4 / cplxblur=20.0 / qblur=0.5 / ip_ratio=1.40 / aq=1:1.00
Language                                 : English
Default                                  : Yes
Forced                                   : No

Audio
ID                                       : 2
Format                                   : DTS
Format/Info                              : Digital Theater Systems
Mode                                     : 16
Format settings, Endianness              : Big
Codec ID                                 : A_DTS
Duration                                 : 1h 56mn
Bit rate mode                            : Constant
Bit rate                                 : 1 509 Kbps
Channel(s)                               : 6 channels
Channel positions                        : Front: L C R, Side: L R, LFE
Sampling rate                            : 48.0 KHz
Frame rate                               : 93.750 fps (512 spf)
Bit depth                                : 24 bits
Compression mode                         : Lossy
Stream size                              : 1.23 GiB (15%)
Language                                 : English
Default                                  : No
Forced                                   : No

Text
ID                                       : 3
Format                                   : UTF-8
Codec ID                                 : S_TEXT/UTF8
Codec ID/Info                            : UTF-8 Plain Text
Language                                 : English
Default                                  : No
Forced                                   : No





                                                                                                                                                                                                       

                                                                                                                       
                                                                                                                                                                                                                                                        Me.Myself.And.Irene.2000.1080p.BluRay.x264.DTS-MUxHD.torrent (81.72 KB, 下载次数: 58)

回复

使用道具 举报

小黑屋|磁力链接吧 |网站地图

本网站所有资源来自网络,如无意中侵犯了您的权益,请发邮件至 [email protected],立即清除相关链接

GMT+8, 2020-9-30 13:05 , Processed in 0.107761 second(s), 23 queries .

Powered by Discuz! X3.2

© 2001-2013 Comsenz Inc.

快速回复 返回顶部 返回列表