磁力链接吧

 找回密码
 立即注册
搜索

[动作片] [BT下载]破晓时刻/泰奎拉日出 Tequila.Sunrise.1988.1080p.BluRay.x264.DD2.0-FGT 8.2 ...

[复制链接]
电影首发 发表于 2016-3-17 08:21:00 | 显示全部楼层 |阅读模式

译  名 破晓时刻/泰奎拉日出/黎明霹雳火
片  名 Tequila Sunrise
年  代 1988
国  家 美国
类  别 动作/犯罪/爱情/惊悚
语  言 英语
上映日期 1988-12-02
片  长 115 分钟
导  演 罗伯特·汤 Robert Towne
主  演 梅尔·吉布森 Mel Gibson
      米歇尔·菲佛 Michelle Pfeiffer
      库尔特·拉塞尔 Kurt Russell
      劳尔·朱力亚 Raul Julia
      J·T·沃尔什 J.T. Walsh


简  介


  一位是毒品界奇人(梅尔.吉布森饰演),原已打算洗手不干,奈何人在江湖,不得已而再蹈法网;一位是嫉恶如仇的警官(科特.罗毒饰演),为办案与贩毒份子周旋,可遇到的对手偏偏又是从小一起长大的生死之交,两人因身份与生存方式的不同,展开了一段惊心动魄的较量...


获奖情况


  第61届奥斯卡金像奖  (1989)
  最佳摄影(提名) 康拉德·霍尔


Video
ID                                       : 1
Format                                   : AVC
Format/Info                              : Advanced Video Codec
Format profile                           : [email protected]
Format settings, CABAC                   : Yes
Format settings, ReFrames                : 4 frames
Codec ID                                 : V_MPEG4/ISO/AVC
Duration                                 : 1h 55mn
Bit rate                                 : 10 000 Kbps
Width                                    : 1 920 pixels
Height                                   : 1 080 pixels
Display aspect ratio                     : 16:9
Frame rate mode                          : Constant
Frame rate                               : 23.976 (24000/1001) fps
Color space                              : YUV
Chroma subsampling                       : 4:2:0
Bit depth                                : 8 bits
Scan type                                : Progressive
Bits/(Pixel*Frame)                       : 0.201
Stream size                              : 7.88 GiB (96%)
Title                                    : -=MediaClub-kaspr=-
Writing library                          : x264 core 142 r2389kMod 956c8d8
Encoding settings                        : cabac=1 / ref=4 / deblock=1:-3:-3 / analyse=0x3:0x133 / me=umh / subme=11 / psy=1 / fade_compensate=0.00 / psy_rd=1.00:0.20 / mixed_ref=1 / me_range=32 / chroma_me=1 / trellis=2 / 8x8dct=1 / cqm=0 / deadzone=21,11 / fast_pskip=0 / chroma_qp_offset=-3 / threads=12 / lookahead_threads=2 / sliced_threads=0 / nr=0 / decimate=0 / interlaced=0 / bluray_compat=0 / constrained_intra=0 / fgo=0 / bframes=8 / b_pyramid=2 / b_adapt=2 / b_bias=0 / direct=3 / weightb=1 / open_gop=0 / weightp=2 / keyint=240 / keyint_min=23 / scenecut=40 / intra_refresh=0 / rc=2pass / mbtree=0 / bitrate=10000 / ratetol=1.0 / qcomp=0.60 / qpmin=0 / qpmax=69 / qpstep=4 / cplxblur=20.0 / qblur=0.5 / ip_ratio=1.40 / pb_ratio=1.30 / aq=2:0.80
Default                                  : Yes
Forced                                   : Yes

Audio
ID                                       : 2
Format                                   : AC-3
Format/Info                              : Audio Coding 3
Mode extension                           : CM (complete main)
Format settings, Endianness              : Big
Codec ID                                 : A_AC3
Duration                                 : 1h 55mn
Bit rate mode                            : Constant
Bit rate                                 : 192 Kbps
Channel(s)                               : 2 channels
Channel positions                        : Front: L R
Sampling rate                            : 48.0 KHz
Frame rate                               : 31.250 fps (1536 spf)
Compression mode                         : Lossy
Stream size                              : 158 MiB (2%)
Language                                 : English
Default                                  : Yes
Forced                                   : No

Text
ID                                       : 3
Format                                   : UTF-8
Codec ID                                 : S_TEXT/UTF8
Codec ID/Info                            : UTF-8 Plain Text
Language                                 : English
Default                                  : No
Forced                                   : No

Menu
00:00:00.000                             : en:Chapter 01
00:02:08.586                             : en:Chapter 02
00:06:02.404                             : en:Chapter 03
00:07:42.127                             : en:Chapter 04
00:10:34.843                             : en:Chapter 05
00:14:25.114                             : en:Chapter 06
00:16:21.856                             : en:Chapter 07
00:17:44.689                             : en:Chapter 08
00:21:26.660                             : en:Chapter 09
00:25:35.242                             : en:Chapter 10
00:35:08.315                             : en:Chapter 11
00:41:06.839                             : en:Chapter 12
00:44:39.010                             : en:Chapter 13
00:47:39.106                             : en:Chapter 14
00:52:09.335                             : en:Chapter 15
00:56:34.433                             : en:Chapter 16
00:57:33.492                             : en:Chapter 17
00:59:51.671                             : en:Chapter 18
01:06:04.669                             : en:Chapter 19
01:10:52.497                             : en:Chapter 20
01:13:54.597                             : en:Chapter 21
01:17:51.125                             : en:Chapter 22
01:22:34.908                             : en:Chapter 23
01:25:20.365                             : en:Chapter 24
01:27:54.436                             : en:Chapter 25
01:33:44.702                             : en:Chapter 26
01:36:39.585                             : en:Chapter 27
01:41:05.559                             : en:Chapter 28
01:48:04.978                             : en:Chapter 29
01:49:22.514                             : en:Chapter 30
01:51:22.092                             : en:Chapter 31


                                                                                                                                                                                                       

                                                                                                                       
                                                                                                                                                                                                                                                        Tequila.Sunrise.1988.1080p.BluRay.x264.DD2.0-FGT.torrent (82.63 KB, 下载次数: 52)

回复

使用道具 举报

小黑屋|磁力链接吧 |网站地图

本网站所有资源来自网络,如无意中侵犯了您的权益,请发邮件至 [email protected],立即清除相关链接

GMT+8, 2020-9-27 21:02 , Processed in 0.148491 second(s), 23 queries .

Powered by Discuz! X3.2

© 2001-2013 Comsenz Inc.

快速回复 返回顶部 返回列表