磁力链接吧

 找回密码
 立即注册
搜索

[喜剧片] [BT下载]小精灵/小妖精 Pixies.2015.720p.BluRay.x264-PSYCHD 2.65GB

[复制链接]
电影首发 发表于 2016-3-16 12:28:00 | 显示全部楼层 |阅读模式

译  名 小精灵/小妖精
片  名 pixies
年  代 2015
国  家 美国
类  别 喜剧/动画
语  言 英语
上映日期 2015-06-05(美国)/2015-07-30(科威特)
片  长 78分钟
导  演 Sean Patrick O'Reilly
主  演 Alexa PenaVega
      Christopher Plummer
      Bill Paxton
      Carlos PenaVega
      Geoff Gustafson


简  介


  Joe Beck has lost the love of his life thanks to a Pixie's Curse and he now needs to figure out how to get his girl back, learn more about the mysterious Pixies and undo a bad deed he did long ago.



  • Video
  • ID                                       : 1
  • Format                                   : AVC
  • Format/Info                              : Advanced Video Codec
  • Format profile                           : [email protected]
  • Format settings, CABAC                   : Yes
  • Format settings, ReFrames                : 5 frames
  • Codec ID                                 : V_MPEG4/ISO/AVC
  • Duration                                 : 1h 17mn
  • Bit rate                                 : 4 109 Kbps
  • Width                                    : 1 280 pixels
  • Height                                   : 720 pixels
  • Display aspect ratio                     : 16:9
  • Frame rate mode                          : Constant
  • Frame rate                               : 23.976 (24000/1001) fps
  • Color space                              : YUV
  • Chroma subsampling                       : 4:2:0
  • Bit depth                                : 8 bits
  • Scan type                                : Progressive
  • Bits/(Pixel*Frame)                       : 0.186
  • Stream size                              : 2.18 GiB (82%)
  • Writing library                          : x264 core 148 r2665 a01e339
  • Encoding settings                        : cabac=1 / ref=5 / deblock=1:-3:-3 / analyse=0x3:0x113 / me=umh / subme=8 / psy=1 / psy_rd=1.00:0.00 / mixed_ref=1 / me_range=16 / chroma_me=1 / trellis=1 / 8x8dct=1 / cqm=0 / deadzone=21,11 / fast_pskip=1 / chroma_qp_offset=-2 / threads=22 / lookahead_threads=3 / sliced_threads=0 / nr=0 / decimate=1 / interlaced=0 / bluray_compat=0 / constrained_intra=0 / bframes=3 / b_pyramid=2 / b_adapt=2 / b_bias=0 / direct=3 / weightb=1 / open_gop=0 / weightp=2 / keyint=240 / keyint_min=24 / scenecut=40 / intra_refresh=0 / rc_lookahead=50 / rc=2pass / mbtree=1 / bitrate=4109 / ratetol=1.0 / qcomp=0.60 / qpmin=0 / qpmax=69 / qpstep=4 / cplxblur=20.0 / qblur=0.5 / ip_ratio=1.40 / aq=1:1.00
  • Language                                 : English
  • Default                                  : Yes
  • Forced                                   : No
  • Statistics Tags Issue                    : no_variable_data 1970-01-01 00:00:00 / no_variable_data 2010-02-22 21:41:29
  • FromStats_BitRate                        : 4107866
  • FromStats_Duration                       : 01:17:38.404000000
  • FromStats_FrameCount                     : 111690
  • FromStats_StreamSize                     : 2392012645


  • Audio
  • ID                                       : 2
  • Format                                   : DTS
  • Format/Info                              : Digital Theater Systems
  • Mode                                     : 16
  • Format settings, Endianness              : Big
  • Codec ID                                 : A_DTS
  • Duration                                 : 1h 17mn
  • Bit rate mode                            : Constant
  • Bit rate                                 : 768 Kbps
  • Channel(s)                               : 6 channels
  • Channel positions                        : Front: L C R, Side: L R, LFE
  • Sampling rate                            : 48.0 KHz
  • Frame rate                               : 93.750 fps (512 spf)
  • Bit depth                                : 24 bits
  • Compression mode                         : Lossy
  • Stream size                              : 426 MiB (16%)
  • Language                                 : English
  • Default                                  : Yes
  • Forced                                   : No
  • Statistics Tags Issue                    : no_variable_data 1970-01-01 00:00:00 / no_variable_data 2010-02-22 21:41:29
  • FromStats_BitRate                        : 767999
  • FromStats_Duration                       : 01:17:38.390000000
  • FromStats_FrameCount                     : 436724
  • FromStats_StreamSize                     : 447205376


  • Menu
  • 00:00:00.000                             : en:00:00:00.000
  • 00:02:47.167                             : en:00:02:47.167
  • 00:09:59.599                             : en:00:09:59.599
  • 00:20:27.226                             : en:00:20:27.226
  • 00:29:27.766                             : en:00:29:27.766
  • 00:37:25.243                             : en:00:37:25.243
  • 00:43:32.610                             : en:00:43:32.610
  • 00:48:56.934                             : en:00:48:56.934
  • 00:57:38.455                             : en:00:57:38.455
  • 01:04:00.837                             : en:01:04:00.837
  • 01:08:08.084                             : en:01:08:08.084
  • 01:15:56.552                             : en:01:15:56.552



                                                                                                                                                                                                       

                                                                                                                       
                                                                                                                                                                                                                                                        Pixies.2015.720p.BluRay.x264-PSYCHD.torrent (106.31 KB, 下载次数: 35)

回复

使用道具 举报

小黑屋|磁力链接吧 |网站地图

本网站所有资源来自网络,如无意中侵犯了您的权益,请发邮件至 [email protected],立即清除相关链接

GMT+8, 2020-11-1 06:07 , Processed in 0.099014 second(s), 23 queries .

Powered by Discuz! X3.2

© 2001-2013 Comsenz Inc.

快速回复 返回顶部 返回列表