磁力链接吧

 找回密码
 立即注册
搜索

[剧情片] [BT下载]巴尼的人生/巴尼正传 Barneys.Version.2010.LiMiTED.1080p.BluRay.x264-SHORT ...

[复制链接]
电影首发 发表于 2016-3-16 12:23:00 | 显示全部楼层 |阅读模式

译  名 巴尼的人生/巴尼正传(台)/巴尼版/巴尼的一生/琐碎人生/巴尼的版本
片  名 Barney's Version
年  代 2010
国  家 加拿大/意大利
类  别 剧情
语  言 英语
上映日期 2010-12-24(加拿大)
片  长 134分钟
导  演 Richard J. Lewis
主  演 保罗·吉亚玛提 Paul Giamatti
      罗莎蒙德·派克 Rosamund Pike
      明妮·德里弗 Minnie Driver
      蕾切尔·李费佛 Rachelle Lefevre
      斯科特·斯比德曼 Scott Speedman
      达斯汀·霍夫曼 Dustin Hoffman
      杰克·霍夫曼 Jake Hoffman
      马克·阿蒂 Mark Addy
      绍尔·鲁宾内克 Saul Rubinek


简  介


  该片改编自加拿大作家Mordecai Richler1997年的同名传记体小说。
  男主角保罗·吉亚玛提曾获第68届金球奖最佳男主角奖项。
  巴尼·潘诺夫斯基(保罗·吉亚玛提 Paul Giamatti 饰)是一个电视导演,同时又是一个曲棍球爱好者。酗酒、抽烟、言语粗俗,这些缺点无一例外跟随着他。65岁之时,他开始追忆自己的一生。他遇过不同的女人:第一任妻子克拉拉(蕾切尔·李费佛 Rachelle Lefevre 饰)相信自由的灵魂。第二任P夫人(明妮·德里弗 Minnie Driver 饰)是个富有的犹太人。第三任妻子米利亚姆(罗莎曼德·派克 Rosamund Pike 饰)美丽贤惠。而保罗与父亲伊西(达斯汀·霍夫曼 Dustin Hoffman 饰)的关系似乎缺少一种真正的亲情。暮年的他,回忆起过往的种种,又会是怎样一种情绪......




Video
ID                                       : 1
Format                                   : AVC
Format/Info                              : Advanced Video Codec
Format profile                           : [email protected]
Format settings, CABAC                   : Yes
Format settings, ReFrames                : 5 frames
Codec ID                                 : V_MPEG4/ISO/AVC
Duration                                 : 2h 14mn
Bit rate                                 : 8 977 Kbps
Width                                    : 1 920 pixels
Height                                   : 824 pixels
Display aspect ratio                     : 2.35:1
Frame rate mode                          : Constant
Frame rate                               : 23.976 (24000/1001) fps
Color space                              : YUV
Chroma subsampling                       : 4:2:0
Bit depth                                : 8 bits
Scan type                                : Progressive
Bits/(Pixel*Frame)                       : 0.237
Stream size                              : 8.23 GiB (84%)
Writing library                          : x264 core 115 r1995 c1e60b9
Encoding settings                        : cabac=1 / ref=5 / deblock=1:0:0 / analyse=0x3:0x113 / me=umh / subme=8 / psy=1 / psy_rd=1.00:0.00 / mixed_ref=1 / me_range=16 / chroma_me=1 / trellis=1 / 8x8dct=1 / cqm=0 / deadzone=21,11 / fast_pskip=1 / chroma_qp_offset=-2 / threads=12 / sliced_threads=0 / nr=0 / decimate=1 / interlaced=0 / bluray_compat=0 / constrained_intra=0 / bframes=3 / b_pyramid=2 / b_adapt=2 / b_bias=0 / direct=3 / weightb=1 / open_gop=0 / weightp=2 / keyint=240 / keyint_min=24 / scenecut=40 / intra_refresh=0 / rc_lookahead=50 / rc=2pass / mbtree=1 / bitrate=8977 / ratetol=1.0 / qcomp=0.60 / qpmin=0 / qpmax=69 / qpstep=4 / cplxblur=20.0 / qblur=0.5 / ip_ratio=1.40 / aq=1:1.00
Language                                 : English
Default                                  : Yes
Forced                                   : No

Audio
ID                                       : 2
Format                                   : DTS
Format/Info                              : Digital Theater Systems
Mode                                     : 16
Format settings, Endianness              : Big
Codec ID                                 : A_DTS
Duration                                 : 2h 14mn
Bit rate mode                            : Constant
Bit rate                                 : 1 509 Kbps
Channel(s)                               : 6 channels
Channel positions                        : Front: L C R, Side: L R, LFE
Sampling rate                            : 48.0 KHz
Frame rate                               : 93.750 fps (512 spf)
Bit depth                                : 24 bits
Compression mode                         : Lossy
Stream size                              : 1.42 GiB (14%)
Language                                 : English
Default                                  : Yes
Forced                                   : No

Text
ID                                       : 3
Format                                   : UTF-8
Codec ID                                 : S_TEXT/UTF8
Codec ID/Info                            : UTF-8 Plain Text
Language                                 : English
Default                                  : No
Forced                                   : No

Menu
00:00:00.000                             : en:00:00:00.000
00:04:54.252                             : en:00:04:54.252
00:11:39.866                             : en:00:11:39.866
00:20:11.961                             : en:00:20:11.961
00:25:42.958                             : en:00:25:42.958
00:34:21.184                             : en:00:34:21.184
00:39:09.389                             : en:00:39:09.389
00:42:12.155                             : en:00:42:12.155
00:51:19.326                             : en:00:51:19.326
00:57:22.939                             : en:00:57:22.939
01:04:22.859                             : en:01:04:22.859
01:10:12.583                             : en:01:10:12.583
01:16:56.111                             : en:01:16:56.111
01:22:53.886                             : en:01:22:53.886
01:27:58.607                             : en:01:27:58.607
01:32:34.090                             : en:01:32:34.090
01:37:56.621                             : en:01:37:56.621
01:46:30.551                             : en:01:46:30.551
01:53:12.160                             : en:01:53:12.160
02:05:32.608                             : en:02:05:32.608





                                                                                                                                                                                                       

                                                                                                                       
                                                                                                                                                                                                                                                        Barneys.Version.2010.LiMiTED.1080p.BluRay.x264-SHORTBREHD.torrent (99.02 KB, 下载次数: 41)

回复

使用道具 举报

小黑屋|磁力链接吧 |网站地图

本网站所有资源来自网络,如无意中侵犯了您的权益,请发邮件至 [email protected],立即清除相关链接

GMT+8, 2021-1-20 12:22 , Processed in 0.116908 second(s), 23 queries .

Powered by Discuz! X3.2

© 2001-2013 Comsenz Inc.

快速回复 返回顶部 返回列表