磁力链接吧

 找回密码
 立即注册
搜索

[动作片] [BT下载]豪迈王子 Prince.Valiant.1954.1080p.BluRay.x264.DTS-FGT 6.29GB

[复制链接]
电影首发 发表于 2016-3-16 12:23:00 | 显示全部楼层 |阅读模式

译  名 豪迈王子
片  名 Prince Valiant
年  代 1954
国  家 美国
类  别 动作/冒险/剧情/爱情
语  言 英语
上映日期 1954-04-05
片  长 100 分钟
导  演 Henry Hathaway
主  演 James Mason
      Janet Leigh
      Robert Wagner


简  介


 这是一个从周日杂技团小丑那里听来的故事,关于服从于阿瑟王统治的北欧的海岛王子的故事,他出生于名为RobertWagner的家族。年轻的Valiant的导师是Gawain先生,他曾经为圆桌会议培养过年轻的武士。


Video
ID                                       : 1
Format                                   : AVC
Format/Info                              : Advanced Video Codec
Format profile                           : [email protected]
Format settings, CABAC                   : Yes
Format settings, ReFrames                : 5 frames
Codec ID                                 : V_MPEG4/ISO/AVC
Duration                                 : 1h 40mn
Bit rate                                 : 7 296 Kbps
Width                                    : 1 920 pixels
Height                                   : 752 pixels
Display aspect ratio                     : 2.553
Frame rate mode                          : Constant
Frame rate                               : 23.976 fps
Color space                              : YUV
Chroma subsampling                       : 4:2:0
Bit depth                                : 8 bits
Scan type                                : Progressive
Bits/(Pixel*Frame)                       : 0.211
Stream size                              : 5.11 GiB (81%)
Writing library                          : x264 core 94 r1570 d9db8b3
Encoding settings                        : cabac=1 / ref=5 / deblock=1:0:0 / analyse=0x3:0x113 / me=umh / subme=7 / psy=1 / psy_rd=1.00:0.00 / mixed_ref=1 / me_range=16 / chroma_me=1 / trellis=1 / 8x8dct=1 / cqm=0 / deadzone=21,11 / fast_pskip=0 / chroma_qp_offset=-2 / threads=3 / sliced_threads=0 / nr=0 / decimate=1 / interlaced=0 / constrained_intra=0 / bframes=3 / b_pyramid=2 / b_adapt=1 / b_bias=0 / direct=1 / wpredb=1 / wpredp=2 / keyint=250 / keyint_min=25 / scenecut=40 / intra_refresh=0 / rc_lookahead=40 / rc=crf / mbtree=1 / crf=20.0 / qcomp=0.60 / qpmin=10 / qpmax=51 / qpstep=4 / ip_ratio=1.40 / aq=1:1.00
Language                                 : English
Default                                  : No
Forced                                   : No

Audio
ID                                       : 2
Format                                   : DTS
Format/Info                              : Digital Theater Systems
Mode                                     : 16
Format settings, Endianness              : Big
Codec ID                                 : A_DTS
Duration                                 : 1h 40mn
Bit rate mode                            : Constant
Bit rate                                 : 1 509 Kbps
Channel(s)                               : 2 channels
Channel positions                        : Front: L R
Sampling rate                            : 48.0 KHz
Frame rate                               : 93.750 fps (512 spf)
Bit depth                                : 16 bits
Compression mode                         : Lossy
Stream size                              : 1.06 GiB (17%)
Language                                 : English
Default                                  : No
Forced                                   : No

Menu
00:00:00.000                             : en:Chapter 01
00:02:36.906                             : en:Chapter 02
00:08:26.923                             : en:Chapter 03
00:14:22.862                             : en:Chapter 04
00:22:26.511                             : en:Chapter 05
00:30:23.988                             : en:Chapter 06
00:35:02.016                             : en:Chapter 07
00:39:17.521                             : en:Chapter 08
00:49:15.619                             : en:Chapter 09
00:55:11.474                             : en:Chapter 10
01:02:17.734                             : en:Chapter 11
01:10:18.130                             : en:Chapter 12
01:15:26.980                             : en:Chapter 13
01:21:03.692                             : en:Chapter 14
01:25:14.651                             : en:Chapter 15
01:32:16.906                             : en:Chapter 16
01:40:09.920                             : en:Chapter 17






                                                                                                                                                                                                        

                              Prince.Valiant.1954.1080p.BluRay.x264.DTS-FGT.torrent (63.46 KB, 下载次数: 21)

回复

使用道具 举报

小黑屋|磁力链接吧 |网站地图

本网站所有资源来自网络,如无意中侵犯了您的权益,请发邮件至 [email protected],立即清除相关链接

GMT+8, 2021-1-28 21:40 , Processed in 0.116419 second(s), 23 queries .

Powered by Discuz! X3.2

© 2001-2013 Comsenz Inc.

快速回复 返回顶部 返回列表