磁力链接吧

 找回密码
 立即注册
搜索

[犯罪片] [BT下载]边陲 Borderland.2007.1080p.BluRay.x264.DTS-FGT 6.21GB

[复制链接]
电影首发 发表于 2016-3-16 12:23:00 | 显示全部楼层 |阅读模式

译  名 边陲
片  名 Borderland
年  代 2007
国  家 美国
类  别 犯罪/恐怖/惊悚
语  言 英语
上映日期 2007-02-10
片  长 105 分钟(unrated version)
导  演 Zev Berman
主  演 布莱恩·普莱斯列 Brian Presley
      莱德尔·斯特朗 Rider Strong
      Jake Muxworthy


简  介


  艾德(Brian Presley 饰)、汉瑞(Jake Muxworthy 饰)和菲尔(Rider Strong 饰)是三个来自美国的大学生,又逢周末,青春躁动的大男孩们相约前往美国南部边境寻欢作乐。他们驱车来到到墨西哥北部一个叫曼泽塔的小镇,这里荒凉鬼魅、黯淡无光的景象似乎并未引起男孩们的主意,他们一门心思寻找酗酒以及艳遇的机会。
  当晚,三个家伙如愿以偿抱得美人归,一夜风流过后却发现,菲尔不见了踪影。艾德和汉瑞四处寻找,毫无下落,连警方也拒绝帮助。他们逐渐意识到,自己已经进入当地人精心编织的杀戮罗网之中……


Video
ID                                       : 1
Format                                   : AVC
Format/Info                              : Advanced Video Codec
Format profile                           : [email protected]
Format settings, CABAC                   : Yes
Format settings, ReFrames                : 4 frames
Codec ID                                 : V_MPEG4/ISO/AVC
Duration                                 : 1h 35mn
Bit rate                                 : 7 554 Kbps
Width                                    : 1 920 pixels
Height                                   : 816 pixels
Display aspect ratio                     : 2.35:1
Frame rate mode                          : Constant
Frame rate                               : 25.000 fps
Color space                              : YUV
Chroma subsampling                       : 4:2:0
Bit depth                                : 8 bits
Scan type                                : Progressive
Bits/(Pixel*Frame)                       : 0.193
Stream size                              : 5.06 GiB (81%)
Writing library                          : x264 core 104 r1677 19df41a
Encoding settings                        : cabac=1 / ref=5 / deblock=1:0:0 / analyse=0x3:0x133 / me=umh / subme=7 / psy=1 / psy_rd=1.00:0.00 / mixed_ref=1 / me_range=16 / chroma_me=1 / trellis=1 / 8x8dct=1 / cqm=0 / deadzone=21,11 / fast_pskip=0 / chroma_qp_offset=-2 / threads=6 / sliced_threads=0 / nr=0 / decimate=1 / interlaced=0 / constrained_intra=0 / bframes=3 / b_pyramid=1 / b_adapt=1 / b_bias=0 / direct=1 / weightb=1 / open_gop=0 / weightp=2 / keyint=250 / keyint_min=25 / scenecut=40 / intra_refresh=0 / rc_lookahead=40 / rc=crf / mbtree=1 / crf=20.0 / qcomp=0.60 / qpmin=10 / qpmax=51 / qpstep=4 / ip_ratio=1.40 / aq=1:1.00
Default                                  : Yes
Forced                                   : No

Audio
ID                                       : 2
Format                                   : DTS
Format/Info                              : Digital Theater Systems
Mode                                     : 16
Format settings, Endianness              : Big
Codec ID                                 : A_DTS
Duration                                 : 1h 35mn
Bit rate mode                            : Constant
Bit rate                                 : 1 536 Kbps
Channel(s)                               : 6 channels
Channel positions                        : Front: L C R, Side: L R, LFE
Sampling rate                            : 48.0 KHz
Frame rate                               : 93.750 fps (512 spf)
Bit depth                                : 16 bits
Compression mode                         : Lossy
Stream size                              : 1.03 GiB (17%)
Language                                 : English
Default                                  : Yes
Forced                                   : No






                                                                                                                                                                                                       

                                                                                                                       
                                                                                                                                                                                                                                                        Borderland.2007.1080p.BluRay.x264.DTS-FGT.torrent (62.73 KB, 下载次数: 39)

回复

使用道具 举报

小黑屋|磁力链接吧 |网站地图

本网站所有资源来自网络,如无意中侵犯了您的权益,请发邮件至 [email protected],立即清除相关链接

GMT+8, 2020-10-28 19:34 , Processed in 0.138597 second(s), 23 queries .

Powered by Discuz! X3.2

© 2001-2013 Comsenz Inc.

快速回复 返回顶部 返回列表