磁力链接吧

 找回密码
 立即注册
搜索

[剧情片] [BT下载]坦纳大厅/女校往事 Tanner.Hall.2009.LIMITED.1080p.BluRay.x264-MaxHD 7.6GB ...

[复制链接]
电影首发 发表于 2016-3-16 12:23:00 | 显示全部楼层 |阅读模式

译  名 坦纳大厅/女校往事
片  名 Tanner Hall
年  代 2009
国  家 美国
类  别 剧情
语  言 英语
上映日期 2009
片  长 96分钟
导  演 弗朗西斯卡·格蕾戈里妮 Francesca Gregorini / 塔蒂阿娜·冯·芙丝汀宝 Tatiana von Furstenberg
主  演 鲁妮·玛拉 Rooney Mara
      布丽·拉尔森 Brie Larson
      Amy Ferguson
      汤姆·艾弗瑞特·斯科特 Tom Everett Scott
      乔治雅·金 Georgia King


简  介


  故事讲述美国新英格兰地区一所私立女子寄宿学校发生的故事,四个即将成年的女孩之间青春成长故事
  花絮
  该片由Tatiana von Fürstenberg 和 Francesca Gregorini 出品 ,她们是同为布朗大学校友,年少时都曾上过寄宿学校,这给她们创作该片带来的灵感, 一起创作了该片的剧本 ,该片原本打算作为前UPN电视台的一部剧集播出,但因为合并事件(06年UPN和WB合并成为现在的CW电视台)流产。
  FAN注



Video
ID                                       : 1
Format                                   : AVC
Format/Info                              : Advanced Video Codec
Format profile                           : [email protected]
Format settings, CABAC                   : Yes
Format settings, ReFrames                : 4 frames
Codec ID                                 : V_MPEG4/ISO/AVC
Duration                                 : 1h 35mn
Bit rate                                 : 10.9 Mbps
Width                                    : 1 920 pixels
Height                                   : 1 080 pixels
Display aspect ratio                     : 16:9
Frame rate mode                          : Constant
Frame rate                               : 23.976 (24000/1001) fps
Color space                              : YUV
Chroma subsampling                       : 4:2:0
Bit depth                                : 8 bits
Scan type                                : Progressive
Bits/(Pixel*Frame)                       : 0.218
Stream size                              : 7.07 GiB (92%)
Writing library                          : x264 core 120 r2120 0c7dab9
Encoding settings                        : cabac=1 / ref=4 / deblock=1:0:0 / analyse=0x3:0x133 / me=umh / subme=7 / psy=1 / psy_rd=1.00:0.00 / mixed_ref=1 / me_range=16 / chroma_me=1 / trellis=1 / 8x8dct=1 / cqm=0 / deadzone=21,11 / fast_pskip=0 / chroma_qp_offset=-2 / threads=12 / sliced_threads=0 / nr=0 / decimate=1 / interlaced=0 / bluray_compat=0 / constrained_intra=0 / bframes=3 / b_pyramid=2 / b_adapt=2 / b_bias=0 / direct=3 / weightb=1 / open_gop=0 / weightp=2 / keyint=250 / keyint_min=23 / scenecut=40 / intra_refresh=0 / rc_lookahead=50 / rc=2pass / mbtree=1 / bitrate=10857 / ratetol=1.0 / qcomp=0.60 / qpmin=0 / qpmax=69 / qpstep=4 / cplxblur=20.0 / qblur=0.5 / ip_ratio=1.40 / aq=1:1.00
Language                                 : English
Default                                  : Yes
Forced                                   : No

Audio
ID                                       : 2
Format                                   : AC-3
Format/Info                              : Audio Coding 3
Mode extension                           : CM (complete main)
Format settings, Endianness              : Big
Codec ID                                 : A_AC3
Duration                                 : 1h 35mn
Bit rate mode                            : Constant
Bit rate                                 : 640 Kbps
Channel(s)                               : 6 channels
Channel positions                        : Front: L C R, Side: L R, LFE
Sampling rate                            : 48.0 KHz
Frame rate                               : 31.250 fps (1536 spf)
Compression mode                         : Lossy
Stream size                              : 436 MiB (6%)
Language                                 : English
Default                                  : Yes
Forced                                   : No







                                                                                                                                                                                                       

                                                                                                                       
                                                                                                                                                                                                                                                        Tanner.Hall.2009.LIMITED.1080p.BluRay.x264-MaxHD.torrent (77 KB, 下载次数: 89)

回复

使用道具 举报

小黑屋|磁力链接吧 |网站地图

本网站所有资源来自网络,如无意中侵犯了您的权益,请发邮件至 [email protected],立即清除相关链接

GMT+8, 2021-1-28 22:02 , Processed in 0.151505 second(s), 23 queries .

Powered by Discuz! X3.2

© 2001-2013 Comsenz Inc.

快速回复 返回顶部 返回列表