磁力链接吧

 找回密码
 立即注册
搜索

[剧情片] [BT下载]碧海蓝天/碧海情深 The.Big.Blue.1988.EXTENDED.1080p.BluRay.x264.DD5.1-FGT ...

[复制链接]
电影首发 发表于 2016-3-16 12:23:00 | 显示全部楼层 |阅读模式

译  名 碧海蓝天/碧海情深/夜海倾情/碧海情/大蓝
片  名 Le grand bleu
年  代 1988
国  家 法国/美国/意大利
类  别 剧情/爱情
语  言 法语/英语/意大利语
上映日期 1988-05-11(法国)
片  长 168 分钟(director's cut)/France: 132 分钟(original cut)/USA: 118 分钟(edited version)
导  演 吕克·贝松 Luc Besson
主  演 让-马克·巴尔 Jean-Marc Barr
      让·雷诺 Jean Reno
      罗姗娜·阿奎特 Rosanna Arquette


简  介


  杰克(让-马克•巴尔 Jean-Marc Barr)在希腊海边长大,虽然小时候眼看着爸爸死于一次潜水事故,却没有削减杰克对大海的热爱。当杰克的朋友恩佐(让·雷诺 Jean Reno饰)找到他,劝说他参加潜水冠军大赛时,杰克答应了,在比赛中成绩突出勇夺冠军,并且得到了乔安娜(罗姗娜•阿奎特 Rosanna Arquette饰)的爱。两人打得火热,杰克却意识到他放不下、离不开大海。
  意外发生了。好友恩佐在潜水中不幸丧生,杰克把恩佐的尸首放入大海当中,杰克的心中非常迷乱,他觉得自己不再属于人类社会,只想潜进深海,像海豚一样陪伴大海一生。尽管传来了乔安娜怀孕的消息,杰克深情的看了看爱人,转身投入了大海的怀抱。


Video
ID                                       : 1
Format                                   : AVC
Format/Info                              : Advanced Video Codec
Format profile                           : [email protected]
Format settings, CABAC                   : Yes
Format settings, ReFrames                : 5 frames
Codec ID                                 : V_MPEG4/ISO/AVC
Duration                                 : 2h 48mn
Bit rate                                 : 18.2 Mbps
Width                                    : 1 920 pixels
Height                                   : 816 pixels
Display aspect ratio                     : 2.35:1
Frame rate mode                          : Constant
Frame rate                               : 23.976 (24000/1001) fps
Color space                              : YUV
Chroma subsampling                       : 4:2:0
Bit depth                                : 8 bits
Scan type                                : Progressive
Bits/(Pixel*Frame)                       : 0.485
Stream size                              : 21.4 GiB (96%)
Writing library                          : x264 core 142 r2453 ea0ca51
Encoding settings                        : cabac=1 / ref=5 / deblock=1:-3:-3 / analyse=0x3:0x133 / me=umh / subme=10 / psy=1 / psy_rd=1.10:0.00 / mixed_ref=1 / me_range=16 / chroma_me=1 / trellis=2 / 8x8dct=1 / cqm=0 / deadzone=21,11 / fast_pskip=0 / chroma_qp_offset=-2 / threads=12 / lookahead_threads=3 / sliced_threads=0 / nr=0 / decimate=0 / interlaced=0 / bluray_compat=0 / constrained_intra=0 / bframes=10 / b_pyramid=2 / b_adapt=2 / b_bias=0 / direct=3 / weightb=1 / open_gop=0 / weightp=2 / keyint=250 / keyint_min=23 / scenecut=40 / intra_refresh=0 / rc=crf / mbtree=0 / crf=17.8 / qcomp=0.65 / qpmin=0 / qpmax=69 / qpstep=4 / ip_ratio=1.40 / pb_ratio=1.20 / aq=1:0.70
Language                                 : English
Default                                  : Yes
Forced                                   : No

Audio
ID                                       : 2
Format                                   : AC-3
Format/Info                              : Audio Coding 3
Mode extension                           : CM (complete main)
Format settings, Endianness              : Big
Codec ID                                 : A_AC3
Duration                                 : 2h 48mn
Bit rate mode                            : Constant
Bit rate                                 : 448 Kbps
Channel(s)                               : 6 channels
Channel positions                        : Front: L C R, Side: L R, LFE
Sampling rate                            : 48.0 KHz
Frame rate                               : 31.250 fps (1536 spf)
Compression mode                         : Lossy
Stream size                              : 539 MiB (2%)
Language                                 : English
Default                                  : Yes
Forced                                   : No

Text
ID                                       : 3
Format                                   : UTF-8
Codec ID                                 : S_TEXT/UTF8
Codec ID/Info                            : UTF-8 Plain Text
Language                                 : English
Default                                  : Yes
Forced                                   : No

Menu
00:00:00.000                             : en:00:00:00.000
00:05:16.524                             : en:00:05:16.524
00:14:49.471                             : en:00:14:49.471
00:23:37.207                             : en:00:23:37.207
00:34:32.902                             : en:00:34:32.902
00:43:39.114                             : en:00:43:39.114
00:50:41.204                             : en:00:50:41.204
00:59:57.760                             : en:00:59:57.760
01:08:49.542                             : en:01:08:49.542
01:15:07.252                             : en:01:15:07.252
01:25:28.081                             : en:01:25:28.081
01:30:30.550                             : en:01:30:30.550
01:39:59.326                             : en:01:39:59.326
01:51:46.533                             : en:01:51:46.533
02:00:18.877                             : en:02:00:18.877
02:07:07.453                             : en:02:07:07.453
02:16:36.396                             : en:02:16:36.396
02:26:16.601                             : en:02:26:16.601
02:32:47.449                             : en:02:32:47.449
02:43:10.862                             : en:02:43:10.862






                                                                                                                                                                                                       

                                                                                                                       
                                                                                                                                                                                                                                                        The.Big.Blue.1988.EXTENDED.1080p.BluRay.x264.DD5.1-FGT.torrent (56.63 KB, 下载次数: 159)

回复

使用道具 举报

小黑屋|磁力链接吧 |网站地图

本网站所有资源来自网络,如无意中侵犯了您的权益,请发邮件至 [email protected],立即清除相关链接

GMT+8, 2021-4-16 16:29 , Processed in 0.118909 second(s), 22 queries .

Powered by Discuz! X3.2

© 2001-2013 Comsenz Inc.

快速回复 返回顶部 返回列表