磁力链接吧

 找回密码
 立即注册
搜索

[动作片] [BT下载]雪崩飞鲨 Avalanche.Sharks.2013.1080p.BluRay.x264-iFPD 6.56GB

[复制链接]
电影首发 发表于 2016-3-16 12:23:00 | 显示全部楼层 |阅读模式

译  名 雪崩飞鲨
片  名 avalanche sharks
年  代 2013
国  家 美国
类  别 动作/科幻/恐怖
语  言 英语
上映日期 2013-01-01
导  演 Scott Wheeler
主  演 Alexander Mendeluk
      凯特·娜乌塔 Kate Nauta
      Benjamin Easterday
      Eric Scott Woods


简  介


  It's Spring Break at a US ski field. The resorts visitors and staff are attacked by snow sharks who were summoned to the mountain by vengeful American Indian
sharmans long ago. The staff and some spring breakers battle the cursed ice-sharks to survive in the snow and escape the mountain.



Video
ID                                       : 1
Format                                   : AVC
Format/Info                              : Advanced Video Codec
Format profile                           : [email protected]
Format settings, CABAC                   : Yes
Format settings, ReFrames                : 4 frames
Codec ID                                 : V_MPEG4/ISO/AVC
Duration                                 : 1h 22mn
Bit rate                                 : 9 927 Kbps
Width                                    : 1 920 pixels
Height                                   : 1 080 pixels
Display aspect ratio                     : 16:9
Frame rate mode                          : Constant
Frame rate                               : 23.976 (24000/1001) fps
Original frame rate                      : 23.976 (23976/1000) fps
Color space                              : YUV
Chroma subsampling                       : 4:2:0
Bit depth                                : 8 bits
Scan type                                : Progressive
Bits/(Pixel*Frame)                       : 0.200
Stream size                              : 5.56 GiB (85%)
Title                                    : Avalanche Sharks (2013)
Writing library                          : x264 core 142 r2431 ac76440
Encoding settings                        : cabac=1 / ref=4 / deblock=1:0:0 / analyse=0x3:0x113 / me=umh / subme=7 / psy=1 / psy_rd=1.00:0.00 / mixed_ref=1 / me_range=16 / chroma_me=1 / trellis=1 / 8x8dct=1 / cqm=0 / deadzone=21,11 / fast_pskip=0 / chroma_qp_offset=-2 / threads=12 / lookahead_threads=2 / sliced_threads=0 / nr=0 / decimate=1 / interlaced=0 / bluray_compat=0 / constrained_intra=0 / bframes=3 / b_pyramid=2 / b_adapt=2 / b_bias=0 / direct=3 / weightb=1 / open_gop=0 / weightp=2 / keyint=250 / keyint_min=23 / scenecut=40 / intra_refresh=0 / rc_lookahead=50 / rc=2pass / mbtree=1 / bitrate=9927 / ratetol=1.0 / qcomp=0.60 / qpmin=0 / qpmax=69 / qpstep=4 / cplxblur=20.0 / qblur=0.5 / ip_ratio=1.40 / aq=1:1.00
Default                                  : Yes
Forced                                   : No

Audio
ID                                       : 2
Format                                   : DTS
Format/Info                              : Digital Theater Systems
Mode                                     : 16
Format settings, Endianness              : Big
Codec ID                                 : A_DTS
Duration                                 : 1h 22mn
Bit rate mode                            : Constant
Bit rate                                 : 1 509 Kbps
Channel(s)                               : 6 channels
Channel positions                        : Front: L C R, Side: L R, LFE
Sampling rate                            : 48.0 KHz
Frame rate                               : 93.750 fps (512 spf)
Bit depth                                : 24 bits
Compression mode                         : Lossy
Stream size                              : 886 MiB (13%)
Title                                    : DTS English
Language                                 : English
Default                                  : Yes
Forced                                   : No

Menu
00:00:00.000                             : en:00:00:00.000
00:07:32.535                             : en:00:07:32.535
00:13:29.183                             : en:00:13:29.183
00:21:46.472                             : en:00:21:46.472
00:28:18.906                             : en:00:28:18.906
00:35:36.593                             : en:00:35:36.593
00:43:52.338                             : en:00:43:52.338
00:49:21.125                             : en:00:49:21.125
00:56:55.954                             : en:00:56:55.954
01:03:56.499                             : en:01:03:56.499
01:08:52.628                             : en:01:08:52.628
01:15:20.391                             : en:01:15:20.391






                                                                                                                                                                                                       

                                                                                                                       
                                                                                                                                                                                                                                                        Avalanche.Sharks.2013.1080p.BluRay.x264-iFPD.torrent (66.13 KB, 下载次数: 92)

回复

使用道具 举报

小黑屋|磁力链接吧 |网站地图

本网站所有资源来自网络,如无意中侵犯了您的权益,请发邮件至 [email protected],立即清除相关链接

GMT+8, 2020-11-1 05:23 , Processed in 0.136164 second(s), 23 queries .

Powered by Discuz! X3.2

© 2001-2013 Comsenz Inc.

快速回复 返回顶部 返回列表