磁力链接吧

 找回密码
 立即注册
搜索

[喜剧片] [BT下载]小鬼上路2 Are.We.Done.Yet.2007.1080p.BluRay.x264.DTS-FGT 7.9GB

[复制链接]
电影首发 发表于 2016-3-16 12:23:00 | 显示全部楼层 |阅读模式

译  名 小鬼上路2/有完没完/干好了么
片  名 Are We Done Yet?
年  代 2007
国  家 美国/加拿大
类  别 喜剧/剧情/家庭
语  言 英语
上映日期 2007-04-04
片  长 USA: 92 分钟
导  演 Steve Carr
主  演 艾斯·库珀 Ice Cube
      尼娅·朗 Nia Long
      约翰·C·麦金雷 John C. McGinley
      Aleisha Allen
      菲利普·鲍顿 Philip Bolden


简  介


  历经千辛万苦,单身汉单身尼克·普森斯(艾斯·库柏 Ice Cube 饰)终于打动苏珊娜·金斯顿(妮娅·朗 Nia Long 饰)的芳心,也赢得苏珊娜一双子女琳赛(艾丽莎·艾伦 Aleisha Allen 饰)和凯文(菲利普·丹尼尔·波顿 Philip Bolden 饰)的信任,四个人从此组成快乐和幸福的小家庭。尼克似乎找到生活的方向,继而开始朝着梦想努力。
  为了给孩子们以及即将出世的双胞胎创造良好的生活条件,尼克搬离了那间有如垃圾堆的小公寓,在纽伯郡乡间买了一幢别墅。然而这幢别墅纯属华而不实的残次品,而房屋中介商小查克·米契尔(约翰·C·麦金雷 John C. McGinley 饰)更是个怪异神经质的家伙。普森斯一家被房子和小查克搞得疲惫不堪……


Video
ID                                       : 1
Format                                   : AVC
Format/Info                              : Advanced Video Codec
Format profile                           : [email protected]
Format settings, CABAC                   : Yes
Format settings, ReFrames                : 5 frames
Codec ID                                 : V_MPEG4/ISO/AVC
Duration                                 : 1h 32mn
Bit rate                                 : 10.8 Mbps
Width                                    : 1 920 pixels
Height                                   : 1 038 pixels
Display aspect ratio                     : 1.85:1
Frame rate mode                          : Constant
Frame rate                               : 23.976 fps
Color space                              : YUV
Chroma subsampling                       : 4:2:0
Bit depth                                : 8 bits
Scan type                                : Progressive
Bits/(Pixel*Frame)                       : 0.226
Stream size                              : 6.80 GiB (86%)
Writing library                          : x264 core 60 r899M f8428ed
Encoding settings                        : cabac=1 / ref=5 / deblock=1:-3:-3 / analyse=0x3:0x133 / me=umh / subme=7 / rdcmp=psy / brdo=1 / mixed_ref=1 / me_range=24 / chroma_me=1 / trellis=2 / 8x8dct=1 / cqm=0 / deadzone=21,11 / chroma_qp_offset=0 / threads=6 / nr=0 / decimate=1 / mbaff=0 / bframes=3 / b_pyramid=1 / b_adapt=1 / b_bias=0 / direct=3 / wpredb=1 / bime=1 / keyint=250 / keyint_min=25 / scenecut=40(pre) / rc=2pass / bitrate=10822 / ratetol=1.0 / rceq=\'blurCplx^(1-qComp)\' / qcomp=1.00 / qpmin=10 / qpmax=51 / qpstep=4 / cplxblur=20.0 / qblur=0.5 / ip_ratio=1.40 / pb_ratio=1.30 / aq=2:0.70
Language                                 : English
Default                                  : Yes
Forced                                   : No

Audio
ID                                       : 2
Format                                   : DTS
Format/Info                              : Digital Theater Systems
Mode                                     : 16
Format settings, Endianness              : Big
Codec ID                                 : A_DTS
Duration                                 : 1h 32mn
Bit rate mode                            : Constant
Bit rate                                 : 1 510 Kbps
Channel(s)                               : 6 channels
Channel positions                        : Front: L C R, Side: L R, LFE
Sampling rate                            : 48.0 KHz
Frame rate                               : 93.750 fps (512 spf)
Bit depth                                : 24 bits
Compression mode                         : Lossy
Stream size                              : 994 MiB (12%)
Language                                 : English
Default                                  : Yes
Forced                                   : No

Text
ID                                       : 3
Format                                   : UTF-8
Codec ID                                 : S_TEXT/UTF8
Codec ID/Info                            : UTF-8 Plain Text
Title                                    : English
Language                                 : English
Default                                  : No
Forced                                   : No






                                                                                                                                                                                                       

                                                                                                                       
                                                                                                                                                                                                                                                        Are.We.Done.Yet.2007.1080p.BluRay.x264.DTS-FGT.torrent (79.91 KB, 下载次数: 32)

回复

使用道具 举报

小黑屋|磁力链接吧 |网站地图

本网站所有资源来自网络,如无意中侵犯了您的权益,请发邮件至 [email protected],立即清除相关链接

GMT+8, 2021-4-16 16:24 , Processed in 0.108341 second(s), 22 queries .

Powered by Discuz! X3.2

© 2001-2013 Comsenz Inc.

快速回复 返回顶部 返回列表