磁力链接吧

 找回密码
 立即注册
搜索

[BT下载]珍妮的婚礼 Jennys.Wedding.2015.LIMITED.720p.BluRay.x264-AN0NYM0US 4.36GB ...

[复制链接]
电影首发 发表于 2016-3-15 08:45:00 | 显示全部楼层 |阅读模式

译  名 珍妮的婚礼/不一样的婚礼又怎样(台)
片  名 Jenny's Wedding
年  代 2015
国  家 美国
类  别 喜剧/爱情/同性/家庭
语  言 英语
上映日期 2015-07-31(美国)
片  长 94分钟
导  演 Mary Agnes Donoghue
主  演 凯瑟琳·海格尔 Katherine Heigl
      汤姆·威尔金森 Tom Wilkinson
      格蕾丝·古默 Grace Gummer
      琳达·艾蒙 Linda Emond
      阿丽克西斯·布莱德尔 Alexis Bledel
      Cathleen O'Malley


简  介


  Jenny 来自一个传统的家庭,却瞒着他们过着公开的同性恋生活,当她终于决定与另一个女人建立家庭,她安全的小日子开始渐渐瓦解.....



  • Video
  • ID                                       : 1
  • Format                                   : AVC
  • Format/Info                              : Advanced Video Codec
  • Format profile                           : [email protected]
  • Format settings, CABAC                   : Yes
  • Format settings, ReFrames                : 5 frames
  • Codec ID                                 : V_MPEG4/ISO/AVC
  • Duration                                 : 1h 31mn
  • Bit rate                                 : 5 351 Kbps
  • Width                                    : 1 280 pixels
  • Height                                   : 536 pixels
  • Display aspect ratio                     : 2.40:1
  • Frame rate mode                          : Constant
  • Frame rate                               : 25.000 fps
  • Color space                              : YUV
  • Chroma subsampling                       : 4:2:0
  • Bit depth                                : 8 bits
  • Scan type                                : Progressive
  • Bits/(Pixel*Frame)                       : 0.312
  • Stream size                              : 3.40 GiB (78%)
  • Writing library                          : x264 core 148 r2665 a01e339
  • Encoding settings                        : cabac=1 / ref=5 / deblock=1:0:0 / analyse=0x3:0x113 / me=umh / subme=8 / psy=1 / psy_rd=1.00:0.00 / mixed_ref=1 / me_range=16 / chroma_me=1 / trellis=1 / 8x8dct=1 / cqm=0 / deadzone=21,11 / fast_pskip=0 / chroma_qp_offset=-2 / threads=12 / lookahead_threads=2 / sliced_threads=0 / nr=0 / decimate=1 / interlaced=0 / bluray_compat=0 / constrained_intra=0 / bframes=3 / b_pyramid=2 / b_adapt=2 / b_bias=0 / direct=3 / weightb=1 / open_gop=0 / weightp=2 / keyint=250 / keyint_min=25 / scenecut=40 / intra_refresh=0 / rc_lookahead=50 / rc=2pass / mbtree=1 / bitrate=5351 / ratetol=1.0 / qcomp=0.60 / qpmin=0 / qpmax=69 / qpstep=4 / cplxblur=20.0 / qblur=0.5 / ip_ratio=1.40 / aq=1:1.00
  • Default                                  : Yes
  • Forced                                   : No


  • Audio
  • ID                                       : 2
  • Format                                   : DTS
  • Format/Info                              : Digital Theater Systems
  • Mode                                     : 16
  • Format settings, Endianness              : Big
  • Codec ID                                 : A_DTS
  • Duration                                 : 1h 31mn
  • Bit rate mode                            : Constant
  • Bit rate                                 : 1 509 Kbps
  • Channel(s)                               : 6 channels
  • Channel positions                        : Front: L C R, Side: L R, LFE
  • Sampling rate                            : 48.0 KHz
  • Frame rate                               : 93.750 fps (512 spf)
  • Bit depth                                : 24 bits
  • Compression mode                         : Lossy
  • Stream size                              : 983 MiB (22%)
  • Language                                 : English
  • Default                                  : No
  • Forced                                   : No



                                                                                                                                                                                                       

                                                                                                                       
                                                                                                                                                                                                                                                        Jennys.Wedding.2015.LIMITED.720p.BluRay.x264-AN0NYM0US.torrent (175.1 KB, 下载次数: 16)

回复

使用道具 举报

小黑屋|磁力链接吧 |网站地图

本网站所有资源来自网络,如无意中侵犯了您的权益,请发邮件至 [email protected],立即清除相关链接

GMT+8, 2020-10-28 18:52 , Processed in 0.133586 second(s), 23 queries .

Powered by Discuz! X3.2

© 2001-2013 Comsenz Inc.

快速回复 返回顶部 返回列表