磁力链接吧

 找回密码
 立即注册
搜索

[奇幻片] [BT下载]美女与野兽 Beauty.and.the.Beast.2009.1080p.BluRay.x264.DTS-FGT 6.86GB .. ...

[复制链接]
电影首发 发表于 2016-3-15 08:41:00 | 显示全部楼层 |阅读模式

译  名 美女与野兽/美女和野兽
片  名 Beauty and the Beast
年  代 2009
国  家 澳大利亚
类  别 奇幻
语  言 英语
上映日期 2010-02-11
IMDb评分  3.2/10 from 1,367 users
导  演 David Lister
主  演 Estella Warren
      Victor Parascos


简  介


  村民被残忍杀害,人们怀疑为野兽所为,展开追杀。美女和野兽齐心协力战胜真正的杀手——权力欲极强的女巫的邪恶怪兽。


Video
ID                                       : 1
Format                                   : AVC
Format/Info                              : Advanced Video Codec
Format profile                           : [email protected]
Format settings, CABAC                   : Yes
Format settings, ReFrames                : 4 frames
Codec ID                                 : V_MPEG4/ISO/AVC
Duration                                 : 1h 29mn
Bit rate                                 : 9 591 Kbps
Width                                    : 1 920 pixels
Height                                   : 1 080 pixels
Display aspect ratio                     : 16:9
Frame rate mode                          : Constant
Frame rate                               : 23.976 (24000/1001) fps
Color space                              : YUV
Chroma subsampling                       : 4:2:0
Bit depth                                : 8 bits
Scan type                                : Progressive
Bits/(Pixel*Frame)                       : 0.193
Stream size                              : 6.00 GiB (88%)
Writing library                          : x264 core 84 r1416 fcf70c2
Encoding settings                        : cabac=1 / ref=4 / deblock=1:0:0 / analyse=0x3:0x113 / me=umh / subme=7 / psy=1 / psy_rd=1.0:0.2 / mixed_ref=1 / me_range=16 / chroma_me=1 / trellis=1 / 8x8dct=1 / cqm=0 / deadzone=21,11 / fast_pskip=0 / chroma_qp_offset=-3 / threads=12 / sliced_threads=0 / nr=0 / decimate=1 / mbaff=0 / constrained_intra=0 / bframes=3 / b_pyramid=2 / b_adapt=1 / b_bias=0 / direct=1 / wpredb=1 / wpredp=2 / keyint=250 / keyint_min=25 / scenecut=40 / intra_refresh=0 / rc_lookahead=40 / rc=crf / mbtree=1 / crf=20.0 / qcomp=0.60 / qpmin=10 / qpmax=51 / qpstep=4 / ip_ratio=1.40 / aq=1:1.00
Language                                 : English
Default                                  : Yes
Forced                                   : No

Audio
ID                                       : 2
Format                                   : DTS
Format/Info                              : Digital Theater Systems
Mode                                     : 16
Format settings, Endianness              : Big
Codec ID                                 : A_DTS
Duration                                 : 1h 29mn
Bit rate mode                            : Constant
Bit rate                                 : 1 152 Kbps
Channel(s)                               : 6 channels
Channel positions                        : Front: L C R, Side: L R, LFE
Sampling rate                            : 48.0 KHz
Frame rate                               : 93.750 fps (512 spf)
Bit depth                                : 24 bits
Compression mode                         : Lossy
Stream size                              : 738 MiB (11%)
Language                                 : English
Default                                  : No
Forced                                   : No

Menu
00:00:00.000                             : en:00:00:00.000
00:07:59.020                             : en:00:07:59.020
00:14:24.989                             : en:00:14:24.989
00:21:27.995                             : en:00:21:27.995
00:30:15.981                             : en:00:30:15.981
00:39:35.957                             : en:00:39:35.957
00:50:07.963                             : en:00:50:07.963
01:01:06.955                             : en:01:01:06.955
01:07:43.935                             : en:01:07:43.935
01:13:58.976                             : en:01:13:58.976
01:23:56.949                             : en:01:23:56.949
01:23:59.910                             : en:01:23:59.910





                                                                                                                                                                                                       

                                                                                                                       
                                                                                                                                                                                                                                                        Beauty.and.the.Beast.2009.1080p.BluRay.x264.DTS-FGT.torrent (69.16 KB, 下载次数: 73)

回复

使用道具 举报

小黑屋|磁力链接吧 |网站地图

本网站所有资源来自网络,如无意中侵犯了您的权益,请发邮件至 [email protected],立即清除相关链接

GMT+8, 2021-2-28 22:56 , Processed in 0.147834 second(s), 23 queries .

Powered by Discuz! X3.2

© 2001-2013 Comsenz Inc.

快速回复 返回顶部 返回列表