磁力链接吧

 找回密码
 立即注册
搜索

[惊悚片] [BT下载]黑岩/黑岩岛/黑色摇滚 Black.Rock.2012.1080p.BluRay.x264.DTS-FGT 4.73GB .. ...

[复制链接]
电影首发 发表于 2016-3-15 08:41:00 | 显示全部楼层 |阅读模式

译  名 黑岩/黑岩岛/黑色摇滚
片  名 Black Rock
年  代 2012
国  家 美国
类  别 惊悚/恐怖
上映日期 2013-05-17(美国)
IMDb评分  4.8/10 from 6,296 users
片  长 79分钟
导  演 凯蒂·阿赛尔顿 Katie Aselton
主  演 凯特·波茨沃斯 Kate Bosworth
      蕾克·贝尔 Lake Bell
      凯蒂·阿赛尔顿 Katie Aselton


简  介


  莎拉(凯特·波茨沃斯 Kate Bosworth 饰)、艾比(凯蒂·阿赛尔顿 Katie Aselton 饰)和路易丝(蕾克·贝尔 Lake Bell 饰)是三个从童年时代就在一起玩的好朋友,为了弥合另外两人的矛盾,莎拉特意组织了一次远离城市喧嚣和烦恼的假期旅行。她们乘船来到名为黑岩(Black Rock)的孤岛展开巡宝冒险。一路上有欢声笑语,也有争吵咆哮,心中固有的芥蒂毕竟无法意识清除。在此期间,她们邂逅当年相识的男子亨利(Will Bouvier 饰)以及和他一同打猎的伙伴德雷克(Jay Paulson 饰)与阿历克斯(Anslem Richardson 饰)。
  夜幕降临,三对男女围坐篝火旁相聊甚欢。但随着原始兽性取代人性,一切急转直下,杀戮突然降临……


Video
ID                                       : 1
Format                                   : AVC
Format/Info                              : Advanced Video Codec
Format profile                           : [email protected]
Format settings, CABAC                   : Yes
Format settings, ReFrames                : 4 frames
Codec ID                                 : V_MPEG4/ISO/AVC
Duration                                 : 1h 16mn
Bit rate                                 : 7 185 Kbps
Width                                    : 1 920 pixels
Height                                   : 1 040 pixels
Display aspect ratio                     : 1.85:1
Frame rate mode                          : Constant
Frame rate                               : 25.000 fps
Color space                              : YUV
Chroma subsampling                       : 4:2:0
Bit depth                                : 8 bits
Scan type                                : Progressive
Bits/(Pixel*Frame)                       : 0.144
Stream size                              : 3.83 GiB (81%)
Writing library                          : x264 core 135 r2345 f0c1c53
Encoding settings                        : cabac=1 / ref=4 / deblock=1:-3:-3 / analyse=0x3:0x133 / me=umh / subme=7 / psy=1 / psy_rd=1.00:0.15 / mixed_ref=1 / me_range=16 / chroma_me=1 / trellis=1 / 8x8dct=1 / cqm=0 / deadzone=21,11 / fast_pskip=0 / chroma_qp_offset=-3 / threads=18 / lookahead_threads=3 / sliced_threads=0 / nr=0 / decimate=1 / interlaced=0 / bluray_compat=0 / constrained_intra=0 / bframes=3 / b_pyramid=2 / b_adapt=1 / b_bias=0 / direct=3 / weightb=1 / open_gop=0 / weightp=2 / keyint=250 / keyint_min=25 / scenecut=40 / intra_refresh=0 / rc_lookahead=40 / rc=crf / mbtree=1 / crf=20.0 / qcomp=0.60 / qpmin=10 / qpmax=51 / qpstep=4 / ip_ratio=1.40 / aq=1:1.00
Language                                 : English
Default                                  : Yes
Forced                                   : No

Audio
ID                                       : 2
Format                                   : DTS
Format/Info                              : Digital Theater Systems
Mode                                     : 16
Format settings, Endianness              : Big
Codec ID                                 : A_DTS
Duration                                 : 1h 16mn
Bit rate mode                            : Constant
Bit rate                                 : 1 509 Kbps
Channel(s)                               : 6 channels
Channel positions                        : Front: L C R, Side: L R, LFE
Sampling rate                            : 48.0 KHz
Frame rate                               : 93.750 fps (512 spf)
Bit depth                                : 24 bits
Compression mode                         : Lossy
Stream size                              : 824 MiB (17%)
Language                                 : English
Default                                  : No
Forced                                   : No

Menu
00:00:00.000                             : en:00:00:00.000
00:08:28.320                             : en:00:08:28.320
00:13:28.000                             : en:00:13:28.000
00:20:42.240                             : en:00:20:42.240
00:32:14.400                             : en:00:32:14.400
00:42:29.760                             : en:00:42:29.760
00:51:06.240                             : en:00:51:06.240
01:01:13.440                             : en:01:01:13.440
01:07:39.840                             : en:01:07:39.840





                                                                                                                                                                                                       

                                                                                                                       
                                                                                                                                                                                                                                                        Black.Rock.2012.1080p.BluRay.x264.DTS-FGT.torrent (95.23 KB, 下载次数: 23)

回复

使用道具 举报

小黑屋|磁力链接吧 |网站地图

本网站所有资源来自网络,如无意中侵犯了您的权益,请发邮件至 [email protected],立即清除相关链接

GMT+8, 2020-10-28 02:02 , Processed in 0.123585 second(s), 23 queries .

Powered by Discuz! X3.2

© 2001-2013 Comsenz Inc.

快速回复 返回顶部 返回列表