磁力链接吧

 找回密码
 立即注册
搜索

[BT下载]少林杀手:血钱/狂飙猎杀 Blood.Money.2012.1080p.BluRay.x264.DTS-FGT 7.5GB ...

[复制链接]
电影首发 发表于 2016-3-15 08:41:00 | 显示全部楼层 |阅读模式

译  名 少林杀手:血钱/狂飙猎杀
片  名 Blood Money
年  代 2012
国  家 美国
类  别 动作/惊悚
语  言 英语
上映日期 2012-08-28
片  长 107 分钟(澳大利亚)
导  演 Gregory McQualter
主  演 刘家辉 Chia Hui Liu


简  介


  郑周的父母被杀,妹妹被绑架,他就转变成贩卖毒品和犯罪的人,几乎断送了他自己的生命。借助香港臭名昭著的龙黑社会集团的帮助下,哥伦比亚最大的毒品贩卡特尔计划安排两吨的可卡因通过美国Miamiin港口并最终偷运到澳大利亚和中国。但当卡特尔挟持一个黑社会家庭成员做人质后,黑社会请郑周救那个女孩并杀死了哥伦比亚毒贩..........


Video
ID                                       : 1
Format                                   : AVC
Format/Info                              : Advanced Video Codec
Format profile                           : [email protected]
Format settings, CABAC                   : Yes
Format settings, ReFrames                : 4 frames
Codec ID                                 : V_MPEG4/ISO/AVC
Duration                                 : 1h 48mn
Bit rate                                 : 8 235 Kbps
Width                                    : 1 920 pixels
Height                                   : 1 080 pixels
Display aspect ratio                     : 16:9
Frame rate mode                          : Constant
Frame rate                               : 23.976 (24000/1001) fps
Color space                              : YUV
Chroma subsampling                       : 4:2:0
Bit depth                                : 8 bits
Scan type                                : Progressive
Bits/(Pixel*Frame)                       : 0.166
Stream size                              : 6.22 GiB (83%)
Writing library                          : x264 core 133 r2334 a3ac64b
Encoding settings                        : cabac=1 / ref=4 / deblock=1:0:0 / analyse=0x3:0x133 / me=umh / subme=7 / psy=1 / psy_rd=1.00:0.00 / mixed_ref=1 / me_range=16 / chroma_me=1 / trellis=1 / 8x8dct=1 / cqm=0 / deadzone=21,11 / fast_pskip=0 / chroma_qp_offset=-2 / threads=3 / lookahead_threads=1 / sliced_threads=0 / nr=0 / decimate=1 / interlaced=0 / bluray_compat=0 / constrained_intra=0 / bframes=3 / b_pyramid=2 / b_adapt=1 / b_bias=0 / direct=3 / weightb=1 / open_gop=0 / weightp=2 / keyint=250 / keyint_min=23 / scenecut=40 / intra_refresh=0 / rc_lookahead=40 / rc=crf / mbtree=1 / crf=20.0 / qcomp=0.60 / qpmin=10 / qpmax=51 / qpstep=4 / ip_ratio=1.40 / aq=1:1.00
Language                                 : English
Default                                  : Yes
Forced                                   : No

Audio
ID                                       : 2
Format                                   : DTS
Format/Info                              : Digital Theater Systems
Mode                                     : 16
Format settings, Endianness              : Big
Codec ID                                 : A_DTS
Duration                                 : 1h 48mn
Bit rate mode                            : Constant
Bit rate                                 : 1 509 Kbps
Channel(s)                               : 6 channels
Channel positions                        : Front: L C R, Side: L R, LFE
Sampling rate                            : 48.0 KHz
Frame rate                               : 93.750 fps (512 spf)
Bit depth                                : 24 bits
Compression mode                         : Lossy
Stream size                              : 1.14 GiB (15%)
Language                                 : English
Default                                  : No
Forced                                   : No

Menu
00:00:00.000                             : en:00:00:00.000
00:06:59.961                             : en:00:06:59.961
00:13:59.964                             : en:00:13:59.964
00:20:59.967                             : en:00:20:59.967
00:27:59.928                             : en:00:27:59.928
00:34:59.931                             : en:00:34:59.931
00:41:59.934                             : en:00:41:59.934
00:48:59.895                             : en:00:48:59.895
00:55:59.898                             : en:00:55:59.898
01:12:59.917                             : en:01:12:59.917
01:22:59.892                             : en:01:22:59.892
01:32:59.908                             : en:01:32:59.908






                                                                                                                                                                                                       

                                                                                                                       
                                                                                                                                                                                                                                                        Blood.Money.2012.1080p.BluRay.x264.DTS-FGT.torrent (75.72 KB, 下载次数: 47)

回复

使用道具 举报

小黑屋|磁力链接吧 |网站地图

本网站所有资源来自网络,如无意中侵犯了您的权益,请发邮件至 [email protected],立即清除相关链接

GMT+8, 2021-1-27 10:57 , Processed in 0.138608 second(s), 23 queries .

Powered by Discuz! X3.2

© 2001-2013 Comsenz Inc.

快速回复 返回顶部 返回列表