磁力链接吧

 找回密码
 立即注册
搜索

[BT下载]西北前线 North.West.Frontier.1959.1080p.BluRay.x264.DTS-FGT 8.19GB

[复制链接]
电影首发 发表于 2016-3-15 08:41:00 | 显示全部楼层 |阅读模式

译  名 西北前线
片  名 North West Frontier
年  代 1959
国  家 英国
类  别 冒险/剧情
语  言 英语
上映日期 1960-04-29
片  长 129 分钟
导  演 J. Lee Thompson
主  演 Kenneth More
      Lauren Bacall


简  介


  In British India, a young prince must be taken to safey across rebel-held territory, and an old train is the only way to do it.


Video
ID                                       : 1
Format                                   : AVC
Format/Info                              : Advanced Video Codec
Format profile                           : [email protected]
Format settings, CABAC                   : Yes
Format settings, ReFrames                : 5 frames
Codec ID                                 : V_MPEG4/ISO/AVC
Duration                                 : 1h 42mn
Bit rate                                 : 10.7 Mbps
Width                                    : 1 920 pixels
Height                                   : 816 pixels
Display aspect ratio                     : 2.35:1
Frame rate mode                          : Constant
Frame rate                               : 23.976 (24000/1001) fps
Color space                              : YUV
Chroma subsampling                       : 4:2:0
Bit depth                                : 8 bits
Scan type                                : Progressive
Bits/(Pixel*Frame)                       : 0.284
Stream size                              : 7.48 GiB (91%)
Writing library                          : x264 core 138 r2358kMod 9e941d1
Encoding settings                        : cabac=1 / ref=5 / deblock=1:-3:-3 / analyse=0x3:0x133 / me=umh / subme=8 / psy=1 / fade_compensate=0.00 / psy_rd=1.00:0.15 / mixed_ref=1 / me_range=16 / chroma_me=1 / trellis=1 / 8x8dct=1 / cqm=0 / deadzone=21,11 / fast_pskip=0 / chroma_qp_offset=-3 / threads=12 / lookahead_threads=2 / sliced_threads=0 / nr=0 / decimate=1 / interlaced=0 / bluray_compat=0 / constrained_intra=0 / bframes=3 / b_pyramid=2 / b_adapt=2 / b_bias=0 / direct=3 / weightb=1 / open_gop=0 / weightp=2 / keyint=240 / keyint_min=23 / scenecut=40 / intra_refresh=0 / rc_lookahead=50 / rc=2pass / mbtree=1 / bitrate=10666 / ratetol=1.0 / qcomp=0.60 / qpmin=0 / qpmax=69 / qpstep=4 / cplxblur=20.0 / qblur=0.5 / ip_ratio=1.40 / aq=1:1.00
Language                                 : English
Default                                  : Yes
Forced                                   : No

Audio
ID                                       : 2
Format                                   : DTS
Format/Info                              : Digital Theater Systems
Mode                                     : 16
Format settings, Endianness              : Big
Codec ID                                 : A_DTS
Duration                                 : 1h 42mn
Bit rate mode                            : Constant
Bit rate                                 : 768 Kbps
Channel(s)                               : 6 channels
Channel positions                        : Front: L C R, Side: L R, LFE
Sampling rate                            : 48.0 KHz
Frame rate                               : 93.750 fps (512 spf)
Bit depth                                : 24 bits
Compression mode                         : Lossy
Stream size                              : 563 MiB (7%)
Language                                 : English
Default                                  : Yes
Forced                                   : No

Menu
00:00:00.000                             : en:00:00:00.000
00:05:24.199                             : en:00:05:24.199
00:12:04.098                             : en:00:12:04.098
00:18:26.480                             : en:00:18:26.480
00:23:33.078                             : en:00:23:33.078
00:28:42.387                             : en:00:28:42.387
00:41:29.112                             : en:00:41:29.112
00:50:42.873                             : en:00:50:42.873
00:57:58.183                             : en:00:57:58.183
01:09:21.532                             : en:01:09:21.532
01:21:37.226                             : en:01:21:37.226
01:35:05.617                             : en:01:35:05.617
01:41:50.187                             : en:01:41:50.187





                                                                                                                                                                                                       

                                                                                                                       
                                                                                                                                                                                                                                                        North.West.Frontier.1959.1080p.BluRay.x264.DTS-FGT.torrent (82.56 KB, 下载次数: 42)

回复

使用道具 举报

小黑屋|磁力链接吧 |网站地图

本网站所有资源来自网络,如无意中侵犯了您的权益,请发邮件至 [email protected],立即清除相关链接

GMT+8, 2020-10-28 20:05 , Processed in 0.142568 second(s), 23 queries .

Powered by Discuz! X3.2

© 2001-2013 Comsenz Inc.

快速回复 返回顶部 返回列表