磁力链接吧

 找回密码
 立即注册
搜索

[动作片] [BT下载]恶魔以为我不敢 The.Devil.Dared.Me.To.2007.1080p.BluRay.x264.DD2.0-FGT 4. ...

[复制链接]
电影首发 发表于 2016-3-15 08:41:00 | 显示全部楼层 |阅读模式

译  名 恶魔以为我不敢
片  名 The Devil Dared Me To
年  代 2007
国  家 新西兰
类  别 动作/喜剧
语  言 英语
上映日期 2007-08-25
片  长 New Zealand: 75 分钟
导  演 Chris Stapp
主  演 Floyd Alexander-Hunt ... Kid Tracey
      Zach Baker ... Kid Randy
      Andrew Beattie ... Spanner's Dad
      Dominic Bowden ... Sheldon Snake
      Phil Brough ... Spanners
      Phoebe Falconer ... Aunt Debbie


简  介


  一部充斥特级的动作喜剧,讲述了胆大妄为的特级演员兰迪坎贝尔的故事。他追寻已故父亲的足迹,成为新西兰最伟大的亡命特级演员。从小生长在偏远的新西兰牧羊场的小男孩兰迪总是梦想做终级亡命的特级:坐火箭车跳越库克海峡。正是这个梦想带他离开家乡,踏上大城市奥克兰。旅途中,兰迪与旅行中的timaru hellriders特技组组成了一个团队,还遇见了他生命中的真爱,特技宝贝,特雷西"悲剧"琼斯。无法无天,不可理喻的飞车,特技和摇滚,“恶魔以为我不敢”是部混有喜剧因素和疯狂玩命的动作片。


Video
ID                                       : 1
Format                                   : AVC
Format/Info                              : Advanced Video Codec
Format profile                           : [email protected]
Format settings, CABAC                   : Yes
Format settings, ReFrames                : 4 frames
Codec ID                                 : V_MPEG4/ISO/AVC
Duration                                 : 1h 19mn
Bit rate                                 : 7 028 Kbps
Width                                    : 1 920 pixels
Height                                   : 1 080 pixels
Display aspect ratio                     : 16:9
Frame rate mode                          : Constant
Frame rate                               : 25.000 fps
Color space                              : YUV
Chroma subsampling                       : 4:2:0
Bit depth                                : 8 bits
Scan type                                : Progressive
Bits/(Pixel*Frame)                       : 0.136
Stream size                              : 3.90 GiB (92%)
Writing library                          : x264 core 107 r1772 c9dad9e
Encoding settings                        : cabac=1 / ref=4 / deblock=1:0:0 / analyse=0x3:0x133 / me=umh / subme=7 / psy=1 / psy_rd=1.00:0.00 / mixed_ref=1 / me_range=16 / chroma_me=1 / trellis=1 / 8x8dct=1 / cqm=0 / deadzone=21,11 / fast_pskip=0 / chroma_qp_offset=-2 / threads=9 / sliced_threads=0 / nr=0 / decimate=1 / interlaced=0 / constrained_intra=0 / bframes=3 / b_pyramid=2 / b_adapt=1 / b_bias=0 / direct=1 / weightb=1 / open_gop=0 / weightp=2 / keyint=250 / keyint_min=25 / scenecut=40 / intra_refresh=0 / rc_lookahead=40 / rc=crf / mbtree=1 / crf=20.0 / qcomp=0.60 / qpmin=10 / qpmax=51 / qpstep=4 / ip_ratio=1.40 / aq=1:1.00
Default                                  : Yes
Forced                                   : No

Audio
ID                                       : 2
Format                                   : AC-3
Format/Info                              : Audio Coding 3
Mode extension                           : CM (complete main)
Format settings, Endianness              : Big
Codec ID                                 : A_AC3
Duration                                 : 1h 19mn
Bit rate mode                            : Constant
Bit rate                                 : 448 Kbps
Channel(s)                               : 2 channels
Channel positions                        : Front: L R
Sampling rate                            : 48.0 KHz
Frame rate                               : 31.250 fps (1536 spf)
Compression mode                         : Lossy
Stream size                              : 254 MiB (6%)
Language                                 : English
Default                                  : No
Forced                                   : No





                                                                                                                                                                                                       

                                                                                                                       
                                                                                                                                                                                                                                                        The.Devil.Dared.Me.To.2007.1080p.BluRay.x264.DD2.0-FGT.torrent (85.25 KB, 下载次数: 30)

回复

使用道具 举报

小黑屋|磁力链接吧 |网站地图

本网站所有资源来自网络,如无意中侵犯了您的权益,请发邮件至 [email protected],立即清除相关链接

GMT+8, 2021-3-3 23:27 , Processed in 0.128726 second(s), 23 queries .

Powered by Discuz! X3.2

© 2001-2013 Comsenz Inc.

快速回复 返回顶部 返回列表