磁力链接吧

 找回密码
 立即注册
搜索

[剧情片] [BT下载]百万美元酒店 The.Million.Dollar.Hotel.2000.1080p.BluRay.x264.DTS-FGT 8.2 ...

[复制链接]
电影首发 发表于 2016-3-15 08:41:00 | 显示全部楼层 |阅读模式

译  名 百万美元酒店/百万美元大酒店/百万大饭店/百万美元旅馆/地痞酒店谋杀案
片  名 The Million Dollar Hotel
年  代 2000
国  家 德国/英国/美国
类  别 剧情/悬疑/惊悚
语  言 英语
上映日期 2000-02-10
IMDb评分  5.9/10 from 18,161 users
片  长 122 分钟
导  演 维姆·文德斯 Wim Wenders
主  演 米拉·乔沃维奇 Milla Jovovich
      杰瑞米·戴维斯 Jeremy Davies
      梅尔·吉布森 Mel Gibson
      吉米·斯密茨 Jimmy Smits
      彼得·斯特曼 Peter Stormare
      阿曼达·普拉莫 Amanda Plummer


简  介


  百万美元酒店是一座汇聚了三教九流的酒店,这里有着各色各样的人物。一天,一名青年从酒店楼上跳楼自杀了,FBI探员史金纳(梅尔•吉布森 Mel Gibson 饰)奉命来到酒店调查。面对各色各样并不好惹的人,史金纳利用手段拉拢了酒店的智障住户汤姆(杰瑞米•戴维斯 Jeremy Davies 饰)和另一个住户妓女艾易丝(米拉•乔沃维奇 Milla Jovovich 饰)帮助调查。
  原本平平无奇的案情,却因死者是传媒大亨的儿子而变得扑朔迷离。原本对此漠不关心的住客们,为了能从死者父亲那里获得一点好处,而各执一词,对案件做出各种各样的假设,其实多数是不着边际的谎话。而汤姆由于不是心甘情愿地帮助史金纳,出于道义他隐瞒了案子的内情。面对这种情形,史金纳也措手不及。为了理清案情,他只能使出“非常手段”。


Video
ID                                       : 1
Format                                   : AVC
Format/Info                              : Advanced Video Codec
Format profile                           : [email protected]
Format settings, CABAC                   : Yes
Format settings, ReFrames                : 5 frames
Codec ID                                 : V_MPEG4/ISO/AVC
Duration                                 : 2h 2mn
Bit rate                                 : 7 993 Kbps
Width                                    : 1 920 pixels
Height                                   : 816 pixels
Display aspect ratio                     : 2.35:1
Frame rate mode                          : Constant
Frame rate                               : 23.976 (24000/1001) fps
Color space                              : YUV
Chroma subsampling                       : 4:2:0
Bit depth                                : 8 bits
Scan type                                : Progressive
Bits/(Pixel*Frame)                       : 0.213
Stream size                              : 6.83 GiB (82%)
Writing library                          : x264 core 125 r2208 d9d2288
Encoding settings                        : cabac=1 / ref=5 / deblock=1:-1:-1 / analyse=0x3:0x133 / me=umh / subme=7 / psy=1 / psy_rd=1.00:0.15 / mixed_ref=1 / me_range=16 / chroma_me=1 / trellis=1 / 8x8dct=1 / cqm=0 / deadzone=21,11 / fast_pskip=0 / chroma_qp_offset=-3 / threads=12 / lookahead_threads=2 / sliced_threads=0 / nr=0 / decimate=1 / interlaced=0 / bluray_compat=0 / constrained_intra=0 / bframes=3 / b_pyramid=2 / b_adapt=1 / b_bias=0 / direct=3 / weightb=1 / open_gop=0 / weightp=2 / keyint=240 / keyint_min=23 / scenecut=40 / intra_refresh=0 / rc_lookahead=40 / rc=crf / mbtree=1 / crf=20.0 / qcomp=0.60 / qpmin=0 / qpmax=69 / qpstep=4 / ip_ratio=1.40 / aq=1:1.00
Default                                  : Yes
Forced                                   : No

Audio
ID                                       : 2
Format                                   : DTS
Format/Info                              : Digital Theater Systems
Mode                                     : 16
Format settings, Endianness              : Big
Codec ID                                 : A_DTS
Duration                                 : 2h 2mn
Bit rate mode                            : Constant
Bit rate                                 : 1 509 Kbps
Channel(s)                               : 6 channels
Channel positions                        : Front: L C R, Side: L R, LFE
Sampling rate                            : 48.0 KHz
Frame rate                               : 93.750 fps (512 spf)
Bit depth                                : 24 bits
Compression mode                         : Lossy
Stream size                              : 1.29 GiB (16%)
Title                                    : DTS
Language                                 : English
Default                                  : No
Forced                                   : No





                                                                                                                                                                                                       

                                                                                                                       
                                                                                                                                                                                                                                                        The.Million.Dollar.Hotel.2000.1080p.BluRay.x264.DTS-FGT.torrent (83.47 KB, 下载次数: 44)

回复

使用道具 举报

小黑屋|磁力链接吧 |网站地图

本网站所有资源来自网络,如无意中侵犯了您的权益,请发邮件至 [email protected],立即清除相关链接

GMT+8, 2021-2-28 23:23 , Processed in 0.140103 second(s), 23 queries .

Powered by Discuz! X3.2

© 2001-2013 Comsenz Inc.

快速回复 返回顶部 返回列表