磁力链接吧

 找回密码
 立即注册
搜索

[惊悚片] [BT下载]与你共融/与你消失 I.Melt.with.You.2011.1080p.BluRay.x264.DTS-FGT 8.7GB . ...

[复制链接]
电影首发 发表于 2016-3-15 08:41:00 | 显示全部楼层 |阅读模式

译  名 与你共融/与你消失
片  名 I Melt with You
年  代 2011
国  家 美国
类  别 惊悚
语  言 英语
导  演 Mark Pellington
主  演 Carla Gugino
      Thomas Jane
      Jeremy Piven
      Christian McKay
      Sasha Grey


简  介


  故事讲述4个遭遇中年危机的老友一起逃离沉闷的生活,来一场堕落的聚会……
  理查德、罗恩、提姆和乔纳森自从大学时代开始就是好朋友。他们每年都会找出一个周末来办一个派对,以庆祝他们之间的友谊,并和好便宜保持联系。在表面上,这四个好朋友和所有人一样普通而且正常:他们都有自己的工作和家庭,都有自己的责任和义务。
  可是,当着四个男人聚在一起的表面上搞"联谊"的时候,他们却在一起进行"堕落的享受"。在聚会上,美女、酒精和毒品轮番上阵,而这四个男人似乎也能从中找到快乐。只不过,这种享乐的行为终将会为他们惹来不小的麻烦。


Video
ID                                       : 1
Format                                   : AVC
Format/Info                              : Advanced Video Codec
Format profile                           : [email protected]
Format settings, CABAC                   : Yes
Format settings, ReFrames                : 5 frames
Codec ID                                 : V_MPEG4/ISO/AVC
Duration                                 : 2h 2mn
Bit rate                                 : 8 672 Kbps
Width                                    : 1 920 pixels
Height                                   : 816 pixels
Display aspect ratio                     : 2.35:1
Frame rate mode                          : Constant
Frame rate                               : 23.976 fps
Color space                              : YUV
Chroma subsampling                       : 4:2:0
Bit depth                                : 8 bits
Scan type                                : Progressive
Bits/(Pixel*Frame)                       : 0.231
Stream size                              : 7.25 GiB (83%)
Writing library                          : x264 core 120 r2146 bcd41db
Encoding settings                        : cabac=1 / ref=5 / deblock=1:-3:-3 / analyse=0x3:0x113 / me=umh / subme=10 / psy=1 / psy_rd=1.05:0.10 / mixed_ref=1 / me_range=48 / chroma_me=1 / trellis=2 / 8x8dct=1 / cqm=1 / deadzone=21,11 / fast_pskip=0 / chroma_qp_offset=-2 / threads=12 / sliced_threads=0 / nr=0 / decimate=1 / interlaced=0 / bluray_compat=0 / constrained_intra=0 / bframes=6 / b_pyramid=2 / b_adapt=2 / b_bias=0 / direct=3 / weightb=1 / open_gop=0 / weightp=2 / keyint=250 / keyint_min=23 / scenecut=40 / intra_refresh=0 / rc_lookahead=60 / rc=2pass / mbtree=1 / bitrate=8672 / ratetol=2.0 / qcomp=0.70 / qpmin=3 / qpmax=69 / qpstep=4 / cplxblur=20.0 / qblur=0.5 / vbv_maxrate=40000 / vbv_bufsize=30000 / nal_hrd=none / ip_ratio=1.40 / aq=2:1.00
Language                                 : English
Default                                  : Yes
Forced                                   : No

Audio
ID                                       : 2
Format                                   : DTS
Format/Info                              : Digital Theater Systems
Mode                                     : 16
Format settings, Endianness              : Big
Codec ID                                 : A_DTS
Duration                                 : 2h 2mn
Bit rate mode                            : Constant
Bit rate                                 : 1 509 Kbps
Channel(s)                               : 6 channels
Channel positions                        : Front: L C R, Side: L R, LFE
Sampling rate                            : 48.0 KHz
Frame rate                               : 93.750 fps (512 spf)
Bit depth                                : 24 bits
Compression mode                         : Lossy
Stream size                              : 1.29 GiB (15%)
Language                                 : English
Default                                  : No
Forced                                   : No

Text
ID                                       : 3
Format                                   : UTF-8
Codec ID                                 : S_TEXT/UTF8
Codec ID/Info                            : UTF-8 Plain Text
Language                                 : English
Default                                  : No
Forced                                   : No

Menu
00:00:00.000                             : en:00:00:00.000
00:08:59.789                             : en:00:08:59.789
00:17:52.571                             : en:00:17:52.571
00:23:58.937                             : en:00:23:58.937
00:33:52.948                             : en:00:33:52.948
00:38:24.427                             : en:00:38:24.427
00:44:54.317                             : en:00:44:54.317
00:50:54.885                             : en:00:50:54.885
00:59:06.793                             : en:00:59:06.793
01:04:24.694                             : en:01:04:24.694
01:14:44.730                             : en:01:14:44.730
01:21:58.247                             : en:01:21:58.247
01:28:31.348                             : en:01:28:31.348
01:32:57.405                             : en:01:32:57.405
01:45:28.405                             : en:01:45:28.405
01:57:52.899                             : en:01:57:52.899





                                                                                                                                                                                                       

                                                                                                                       
                                                                                                                                                                                                                                                        I.Melt.with.You.2011.1080p.BluRay.x264.DTS-FGT.torrent (87.76 KB, 下载次数: 27)

回复

使用道具 举报

小黑屋|磁力链接吧 |网站地图

本网站所有资源来自网络,如无意中侵犯了您的权益,请发邮件至 [email protected],立即清除相关链接

GMT+8, 2021-3-3 23:39 , Processed in 0.106076 second(s), 23 queries .

Powered by Discuz! X3.2

© 2001-2013 Comsenz Inc.

快速回复 返回顶部 返回列表