磁力链接吧

 找回密码
 立即注册
搜索

[动画片] [BT下载]鼠谭秘奇/勇敢鼠妈妈 The.Secret.of.NIMH.1982.1080p.BluRay.x264.DTS-FGT 5. ...

[复制链接]
电影首发 发表于 2016-3-15 08:41:00 | 显示全部楼层 |阅读模式

译  名 鼠谭秘奇/勇敢鼠妈妈
片  名 The Secret of NIMH
年  代 1982
国  家 美国
类  别 动画/剧情/家庭/奇幻/科幻
语  言 英语
上映日期 1982-07-15
片  长 82 分钟
导  演 唐·布鲁斯 Don Bluth
主  演 Jodi Hicks
      威尔·惠顿 Wil Wheaton
      Hermione Baddeley
      Shannen Doherty
      Arthur Malet
      Elizabeth Hartman
      Derek Jacobi


简  介


  故事发生在一群被NIMH(国家智能研究中心)的小老鼠身上,人们利用这些老鼠进行智力开发之类的实验。实验进展得很顺利,老鼠们都有了类似人类的智商,于是他们计划出逃,但是在此过程中一位勇敢的老鼠牺牲了......不过本片的故事讲的并不是这个,而是那位英雄老鼠的妻子如何不畏危险保护自己孩子的故事。
  家里的小老鼠生了重病,鼠妈妈想办法医好自己的孩子,在途中偶遇了善良的乌鸦,又差点被坏猫吃了。终于经过一番冒险她成功的将药带回了家,但是她的冒险结束了吗?她的孩子真的得救了吗?



Video
ID                                       : 1
Format                                   : AVC
Format/Info                              : Advanced Video Codec
Format profile                           : [email protected]
Format settings, CABAC                   : Yes
Format settings, ReFrames                : 4 frames
Codec ID                                 : V_MPEG4/ISO/AVC
Duration                                 : 1h 22mn
Bit rate                                 : 7 932 Kbps
Width                                    : 1 920 pixels
Height                                   : 1 040 pixels
Display aspect ratio                     : 1.85:1
Frame rate mode                          : Constant
Frame rate                               : 23.976 fps
Color space                              : YUV
Chroma subsampling                       : 4:2:0
Bit depth                                : 8 bits
Scan type                                : Progressive
Bits/(Pixel*Frame)                       : 0.166
Stream size                              : 4.48 GiB (82%)
Writing library                          : x264 core 114 r1913 5fd3dce
Encoding settings                        : cabac=1 / ref=4 / deblock=1:0:0 / analyse=0x3:0x133 / me=umh / subme=8 / psy=1 / psy_rd=1.00:0.00 / mixed_ref=1 / me_range=16 / chroma_me=1 / trellis=1 / 8x8dct=1 / cqm=0 / deadzone=21,11 / fast_pskip=0 / chroma_qp_offset=-2 / threads=6 / sliced_threads=0 / nr=0 / decimate=1 / interlaced=0 / constrained_intra=0 / bframes=3 / b_pyramid=2 / b_adapt=1 / b_bias=0 / direct=1 / weightb=1 / open_gop=0 / weightp=2 / keyint=240 / keyint_min=24 / scenecut=40 / intra_refresh=0 / rc_lookahead=40 / rc=2pass / mbtree=1 / bitrate=7932 / ratetol=1.0 / qcomp=0.60 / qpmin=0 / qpmax=69 / qpstep=4 / cplxblur=20.0 / qblur=0.5 / ip_ratio=1.40 / aq=1:1.00
Language                                 : English
Default                                  : Yes
Forced                                   : No

Audio
ID                                       : 2
Format                                   : DTS
Format/Info                              : Digital Theater Systems
Mode                                     : 16
Format settings, Endianness              : Big
Codec ID                                 : A_DTS
Duration                                 : 1h 22mn
Bit rate mode                            : Constant
Bit rate                                 : 1 509 Kbps
Channel(s)                               : 2 channels
Channel positions                        : Front: L R
Sampling rate                            : 48.0 KHz
Frame rate                               : 93.750 fps (512 spf)
Bit depth                                : 24 bits
Compression mode                         : Lossy
Stream size                              : 893 MiB (16%)
Language                                 : English
Default                                  : Yes
Forced                                   : No







                                                                                                                                                                                                       

                                                                                                                       
                                                                                                                                                                                                                                                        The.Secret.of.NIMH.1982.1080p.BluRay.x264.DTS-FGT.torrent (55.19 KB, 下载次数: 51)

回复

使用道具 举报

小黑屋|磁力链接吧 |网站地图

本网站所有资源来自网络,如无意中侵犯了您的权益,请发邮件至 [email protected],立即清除相关链接

GMT+8, 2021-2-28 23:50 , Processed in 0.117410 second(s), 23 queries .

Powered by Discuz! X3.2

© 2001-2013 Comsenz Inc.

快速回复 返回顶部 返回列表