磁力链接吧

 找回密码
 立即注册
搜索

[科幻片] [BT下载]挑战未来/超越终结者 Nemesis.1992.1080p.BluRay.x264-iFPD 6.56GB ... ...

[复制链接]
电影首发 发表于 2016-3-15 08:37:00 | 显示全部楼层 |阅读模式

译  名 挑战未来/超越终结者/电子战场2027/天谴
片  名 Nemesis
年  代 1992
国  家 丹麦/美国
类  别 科幻/动作/惊悚
语  言 英语
上映日期 1993-01-29
片  长 95 分钟
导  演 Albert Pyun
主  演 奥利弗·古鲁内尔 Olivier Gruner
      Tim Thomerson


简  介


  2027未来世界,恐怖主义弥漫全球,科技发达,使人类神经系统可用人工磁片来取代。机器人为达到蚕食人类的大阴谋,先了绑架国际间各国领袖,继而派遣机器人复制繁殖以取代世界统治者的霸权。洛杉矶警界的杰出人物「雨水艾力」(奥利佛·顾纳饰)察觉这项阴谋,他寻求各种行动以阻止机器人的野心,而艾力身上却已被植入百分之十三人工器官……


Video
ID                                       : 1
Format                                   : AVC
Format/Info                              : Advanced Video Codec
Format profile                           : [email protected]
Format settings, CABAC                   : Yes
Format settings, ReFrames                : 4 frames
Codec ID                                 : V_MPEG4/ISO/AVC
Duration                                 : 1h 35mn
Bit rate                                 : 9 362 Kbps
Width                                    : 1 920 pixels
Height                                   : 1 080 pixels
Display aspect ratio                     : 16:9
Frame rate mode                          : Constant
Frame rate                               : 23.976 (24000/1001) fps
Original frame rate                      : 23.976 (23976/1000) fps
Color space                              : YUV
Chroma subsampling                       : 4:2:0
Bit depth                                : 8 bits
Scan type                                : Progressive
Bits/(Pixel*Frame)                       : 0.188
Stream size                              : 6.26 GiB (95%)
Writing library                          : x264 core 142 r2431 ac76440
Encoding settings                        : cabac=1 / ref=4 / deblock=1:0:0 / analyse=0x3:0x113 / me=umh / subme=7 / psy=1 / psy_rd=1.00:0.00 / mixed_ref=1 / me_range=16 / chroma_me=1 / trellis=1 / 8x8dct=1 / cqm=0 / deadzone=21,11 / fast_pskip=0 / chroma_qp_offset=-2 / threads=12 / lookahead_threads=2 / sliced_threads=0 / nr=0 / decimate=1 / interlaced=0 / bluray_compat=0 / constrained_intra=0 / bframes=3 / b_pyramid=2 / b_adapt=2 / b_bias=0 / direct=3 / weightb=1 / open_gop=0 / weightp=2 / keyint=250 / keyint_min=23 / scenecut=40 / intra_refresh=0 / rc_lookahead=50 / rc=2pass / mbtree=1 / bitrate=9362 / ratetol=1.0 / qcomp=0.60 / qpmin=0 / qpmax=69 / qpstep=4 / cplxblur=20.0 / qblur=0.5 / ip_ratio=1.40 / aq=1:1.00
Default                                  : Yes
Forced                                   : No

Audio
ID                                       : 2
Format                                   : AC-3
Format/Info                              : Audio Coding 3
Mode extension                           : CM (complete main)
Format settings, Endianness              : Big
Codec ID                                 : A_AC3
Duration                                 : 1h 35mn
Bit rate mode                            : Constant
Bit rate                                 : 448 Kbps
Channel(s)                               : 6 channels
Channel positions                        : Front: L C R, Side: L R, LFE
Sampling rate                            : 48.0 KHz
Frame rate                               : 31.250 fps (1536 spf)
Compression mode                         : Lossy
Stream size                              : 307 MiB (5%)
Title                                    : English
Language                                 : English
Default                                  : Yes
Forced                                   : No







                                                                                                                                                                                                       

                                                                                                                       
                                                                                                                                                                                                                                                        Nemesis.1992.1080p.BluRay.x264-iFPD.torrent (66.11 KB, 下载次数: 52)

回复

使用道具 举报

小黑屋|磁力链接吧 |网站地图

本网站所有资源来自网络,如无意中侵犯了您的权益,请发邮件至 [email protected],立即清除相关链接

GMT+8, 2021-2-27 08:21 , Processed in 0.140727 second(s), 23 queries .

Powered by Discuz! X3.2

© 2001-2013 Comsenz Inc.

快速回复 返回顶部 返回列表